<?xml version="1.0" standalone="no"?> <!DOCTYPE svg PUBLIC "-//W3C//DTD SVG 1.0//EN" "http://www.w3.org/TR/2001/REC-SVG-20010904/DTD/svg10.dtd" > <svg xmlns="http://www.w3.org/2000/svg" width="100%" height="100%">
<defs >
<font horiz-adv-x="817" ><font-face
    font-family="GoodDog New"
    units-per-em="2048"
    panose-1="2 0 0 0 0 0 0 0 0 0"
    ascent="2034"
    descent="-660"
    alphabetic="0" />
<missing-glyph horiz-adv-x="748" d="M68 0V1365H612V0H68ZM136 68H544V1297H136V68Z" />
<glyph unicode="&#x0;" glyph-name="glyph1" horiz-adv-x="2048" />
<glyph unicode="&#xd;" glyph-name="uni000D" horiz-adv-x="682" />
<glyph unicode=" " glyph-name="space" horiz-adv-x="563" />
<glyph unicode="!" glyph-name="exclam" horiz-adv-x="512" d="M20 98Q20 133 45 155T94 186T164 203Q242 217 277 165T270 47Q241 4 180 -7T69 11T20 98ZM86 643T91 671T114 770T139 877Q186 1162 186 1167Q190 1198 193 1253T201 1343T215 1418T248 1483T309
1522Q336 1534 387 1532T455 1505Q469 1487 470 1454T465 1394T450 1330T438 1278Q430 1219 411 1054T379 801Q352 625 326 590Q303 559 254 538T155 526T92 588Q86 643 91 671Z" />
<glyph unicode="&quot;" glyph-name="quotedbl" horiz-adv-x="780" d="M59 799T60 824T69 923T80 1020Q98 1262 121 1343Q139 1402 240 1419Q256 1421 270 1417T293 1402T308 1379T318 1346T324 1309T325 1267T324 1225T322 1183T319 1145Q305 858 274 793Q247
732 176 708T68 752Q59 799 60 824ZM449 786T450 833T454 923T462 1023T469 1108Q485 1288 510 1341Q549 1429 676 1401Q713 1368 717 1284T709 1130Q691 901 674 805Q666 744 605 708T475 715Q461 725 455 755Z" />
<glyph unicode="#" glyph-name="numbersign" horiz-adv-x="1425" d="M33 668Q31 736 83 755T228 773T360 784Q409 798 410 909Q387 929 303 932T213 938Q178 946 160 991T150 1087Q158 1146 232 1160T391 1165T485 1159Q499 1167 544 1264T606 1384Q649 1441 754
1411Q781 1403 792 1383T799 1330T789 1272T770 1207T754 1153Q764 1128 825 1123T913 1128Q950 1163 988 1257T1063 1378Q1100 1411 1169 1410T1251 1356Q1261 1311 1212 1232T1171 1116Q1177 1089 1212 1080T1285 1072T1356 1058T1391 1001Q1399 882 1298 874Q1271
872 1200 882T1108 883Q1083 877 1055 814T1053 739Q1100 719 1174 714T1278 693T1298 618Q1292 565 1270 542T1185 509T989 508Q960 510 945 480T927 409T917 328T897 274Q874 249 828 238T738 240T684 299Q676 340 701 412T721 500Q715 527 658 543T559 535Q555
533 522 425T444 287Q405 256 343 263T260 322Q244 363 267 427T289 530Q264 538 192 542T77 572T33 668ZM655 788Q684 757 788 758Q843 797 840 901Q811 926 757 929T678 905Q635 843 655 788Z" />
<glyph unicode="$" glyph-name="dollar" horiz-adv-x="1122" d="M88 979Q96 1145 195 1241Q232 1284 352 1321T487 1366Q501 1378 508 1439T535 1522Q564 1551 611 1552T692 1524Q721 1497 720 1434T725 1337Q729 1327 740 1319T772 1304T807 1292T851 1282T889
1274Q991 1247 1042 1202Q1056 1190 1056 1152T1038 1075Q1026 1050 986 1036T905 1028Q887 1030 862 1037T814 1050T771 1064T737 1075L725 1079Q711 1073 706 1035T699 942T694 864Q708 850 792 822T901 776Q1040 692 1059 580Q1086 396 1027 300T811 131Q795
123 742 113T672 94Q654 86 644 31T621 -41Q588 -94 473 -70Q436 -62 433 4T408 82Q353 111 248 125Q10 160 92 317Q98 327 105 335T119 349T135 356T152 359T173 359T193 357T216 351L238 344Q244 342 260 337T283 330Q404 291 434 322Q442 330 447 390T458 534T467
653Q363 665 264 709Q76 791 88 979ZM301 997Q309 952 371 913T477 887Q487 920 494 1008T494 1124Q420 1134 355 1095T301 997ZM668 295Q779 307 816 390T813 550T690 627Q676 566 670 475Q658 352 668 295Z" />
<glyph unicode="%" glyph-name="percent" horiz-adv-x="1611" d="M66 834T52 954T82 1149Q109 1198 181 1241T328 1294Q426 1308 529 1238T655 1081Q678 997 639 912T522 778T342 722T133 788Q66 834 52 954ZM299 961Q338 914 393 922Q438 928 444 983Q450 1032
412 1061T322 1075Q250 1022 299 961ZM475 238Q473 271 489 311T533 398T569 463Q641 610 692 727Q792 946 903 1149Q907 1155 920 1179T938 1210T953 1235T971 1258T990 1276T1015 1293T1043 1303T1079 1313Q1179 1331 1198 1270Q1200 1235 1199 1213T1177 1141T1141
1065T1102 995T1071 940Q1046 893 840 449Q838 445 808 377T764 282T717 213T651 158Q588 127 534 151T475 238ZM971 156T948 270T971 485Q1004 553 1093 610T1270 678Q1362 690 1464 588T1538 354Q1530 309 1481 254T1380 170Q1314 133 1218 118T1047 127Q971
156 948 270ZM1161 399Q1122 342 1190 315Q1241 297 1281 321T1321 399Q1321 471 1257 461Q1198 450 1161 399Z" />
<glyph unicode="&amp;" glyph-name="ampersand" horiz-adv-x="1337" d="M78 494Q113 607 240 709Q265 729 295 743T344 765T365 778Q379 821 358 916T336 1040Q336 1124 389 1231Q416 1278 477 1322T608 1384Q698 1404 781 1381T903 1290Q958 1196 918 1067Q891
981 782 844Q766 821 738 796T692 754T674 729Q674 719 717 647T786 549L811 524Q838 497 853 485T894 459T938 446Q948 446 977 500T1040 625T1092 721Q1129 768 1176 767T1255 731Q1269 715 1273 693T1270 641T1254 592T1230 540T1210 500T1194 466T1176 425T1164
389T1163 350Q1171 319 1221 290T1282 229Q1300 176 1264 128T1159 76Q1106 74 1048 117T958 160Q929 160 845 124T743 84Q391 -33 219 70Q137 117 90 251T78 494ZM291 418Q293 346 342 299T469 244Q526 238 592 256T702 309Q602 430 580 463Q574 471 556 503T525
554T492 591T455 608Q406 606 347 536T291 418ZM524 1026T525 974T555 909Q580 899 612 919T672 980T716 1063T723 1144T672 1196Q635 1208 599 1171T544 1080Z" />
<glyph unicode="&apos;" glyph-name="quotesingle" horiz-adv-x="376" d="M61 780T62 817T69 919T76 993Q99 1267 117 1356Q125 1399 149 1417T221 1440Q325 1450 309 1071Q309 1051 307 1000T304 918T298 847T285 778Q269 725 227 697T154 668Q127 668 99 689T63
745Q61 780 62 817Z" />
<glyph unicode="(" glyph-name="parenleft" horiz-adv-x="651" d="M70 348T64 492T75 769T129 1014Q221 1376 483 1481Q538 1489 575 1457T616 1384Q589 1331 491 1224T369 1032Q301 862 308 608T410 215Q418 203 447 169T490 108T502 47Q498 2 449 -19T336 -31Q307
-21 282 -1T239 36T199 88T168 137T138 194T111 244Q70 348 64 492Z" />
<glyph unicode=")" glyph-name="parenright" horiz-adv-x="634" d="M80 1446Q80 1546 188 1561Q258 1569 337 1502T459 1356Q557 1178 569 898T504 383Q471 287 402 150T279 -29Q250 -54 199 -52T121 -23Q96 0 93 31T105 98T137 159T175 215T199 248Q265 359 304
524T339 876T268 1190Q248 1239 172 1309T80 1446Z" />
<glyph unicode="*" glyph-name="asterisk" horiz-adv-x="1175" d="M59 1024T60 1073T97 1170T178 1219Q239 1217 326 1164T451 1102Q478 1116 462 1235T461 1376Q486 1417 568 1425T688 1393Q708 1370 702 1268T707 1147Q721 1145 759 1182T845 1265T924 1321Q975
1339 1024 1287T1079 1182Q1083 1127 1029 1087T911 1010T834 934Q848 903 899 878T1002 837T1099 791T1147 717Q1149 658 1125 610T1049 565Q977 569 874 623T745 684Q741 655 756 563T764 428Q754 377 697 358T578 365Q539 383 526 438T509 561T492 657Q467 649
432 609T368 532T291 469T190 457Q153 465 126 508T106 600Q122 651 235 731T365 864Q363 872 316 889T200 936T90 995Q59 1024 60 1073Z" />
<glyph unicode="+" glyph-name="plus" horiz-adv-x="909" d="M33 508Q27 559 45 592T98 636T177 653T267 656T356 657Q366 692 371 761T385 862Q405 938 504 940Q533 940 569 917T612 862Q622 833 617 746T614 639Q651 637 698 637T788 638T861 615T891 537Q891
447 815 420Q788 410 731 407T629 406L584 408Q590 246 559 174Q526 106 428 102Q383 102 358 117T325 168T318 233T325 319T332 406Q316 408 205 408T72 424Q49 432 43 448T33 508Z" />
<glyph unicode="," glyph-name="comma" horiz-adv-x="464" d="M29 -252Q31 -211 94 -134T156 -2Q160 33 155 101T162 184Q191 264 276 274Q335 278 361 224T380 94T356 -52T317 -156Q278 -215 223 -266T121 -317Q88 -317 61 -300T29 -252Z" />
<glyph unicode="-" glyph-name="hyphen" horiz-adv-x="1067" d="M55 557Q55 645 170 657Q211 663 530 664Q557 664 654 667T811 667T907 653Q960 637 984 579T983 461Q975 443 948 430T870 410T787 401T688 398T608 397Q205 385 131 414Q94 426 74 467T55 557Z" />
<glyph unicode="." glyph-name="period" horiz-adv-x="454" d="M39 51Q35 141 101 240T281 315Q336 286 354 225T357 103T294 -6T188 -55Q139 -57 90 -27T39 51Z" />
<glyph unicode="/" glyph-name="slash" horiz-adv-x="925" d="M33 137Q299 725 502 1085Q514 1105 548 1173T606 1284T670 1369T743 1419Q796 1431 848 1414T909 1360Q913 1340 901 1310T866 1242T836 1194Q721 987 534 598T272 66Q235 21 175 1T69 12T33 137Z" />
<glyph unicode="0" glyph-name="zero" horiz-adv-x="1173" d="M49 352T51 437T70 592Q123 1196 557 1264Q651 1278 739 1235T878 1133T965 1006Q994 953 1006 869T1014 685T979 483T898 291T762 136T565 45Q387 6 170 131Q107 168 78 260ZM297 752T286 590T309
362Q334 315 408 286T541 268Q629 286 691 382T774 590T782 795Q774 858 702 936T557 1012Q502 1010 444 957T352 846Q297 752 286 590Z" />
<glyph unicode="1" glyph-name="one" horiz-adv-x="587" d="M104 94T101 115T103 178T112 233T121 287Q146 424 165 669T193 979Q195 1002 198 1047T203 1122T212 1188T234 1245T274 1278Q309 1298 367 1287T446 1227Q454 1184 450 1155T432 1063T414 973Q402
881 386 673T358 385Q354 362 352 249T332 96Q314 59 265 29T176 4Q151 8 134 22T111 65Z" />
<glyph unicode="2" glyph-name="two" horiz-adv-x="958" d="M33 946Q35 1007 136 1108T313 1251Q362 1294 455 1308T639 1294T756 1186Q781 1045 737 916T600 631Q594 621 519 502T420 309Q463 295 659 315T887 295Q918 256 898 178T825 84Q678 61 264 72Q205
74 163 94T119 147Q117 182 131 226T163 300T211 371T246 424Q279 479 327 551T410 680T479 809Q485 823 502 853T530 904T551 954T561 1011T549 1067Q541 1083 532 1093T510 1106T486 1107T458 1098T430 1083T402 1062T375 1041T351 1019T330 1001Q310 985 272
940T200 869T131 840Q82 838 57 868T33 946Z" />
<glyph unicode="3" glyph-name="three" horiz-adv-x="989" d="M49 1102T46 1117T53 1149T70 1174T94 1196T121 1215T149 1233T176 1249Q321 1329 530 1354Q643 1368 771 1307T909 1145Q934 1061 840 948T690 815Q710 807 740 793T826 730T897 631Q934 504 889
392T766 201Q713 148 624 101T444 41Q129 -14 113 123Q109 166 131 201T193 250H242H294Q307 250 341 251T392 256T438 266T487 281T533 305T582 338Q711 447 692 553Q682 614 619 641T485 669T356 690T295 762Q293 789 298 810T308 844T332 871T360 890T400 909T444
930Q682 1049 670 1114Q660 1161 570 1164T444 1147Q403 1135 314 1082T199 1018Q144 1008 101 1026T49 1077Q49 1102 46 1117Z" />
<glyph unicode="4" glyph-name="four" horiz-adv-x="1024" d="M41 584T39 603T39 647T44 691T54 740T64 784T76 830T86 866Q141 1075 156 1135Q160 1153 167 1194T180 1255T198 1301T233 1340T289 1356Q336 1358 371 1338T412 1278Q422 1202 350 963Q280 721 291
700Q305 686 431 686T612 692Q659 817 696 1014L709 1094Q717 1147 722 1175T739 1245T765 1307T802 1346T860 1364Q930 1368 958 1347T977 1249Q965 1167 860 668Q844 594 822 452T782 199T754 66Q727 17 655 6T532 35Q509 111 534 249T555 442Q489 473 348 461Q88
443 45 569Q41 584 39 603Z" />
<glyph unicode="5" glyph-name="five" horiz-adv-x="970" d="M55 115Q47 160 66 211T131 272Q174 280 251 253T356 225Q465 231 546 286T647 436Q643 508 588 547T460 587T311 582Q194 562 162 573Q115 591 98 668Q96 772 121 977T152 1243Q154 1296 196 1331T293
1368Q316 1370 359 1373T422 1377T479 1378T556 1376T651 1368Q671 1366 716 1364T789 1360T849 1350T899 1324T922 1280Q932 1217 903 1172T825 1122Q800 1120 611 1126T412 1116Q394 1108 380 1084T357 1020T343 952T334 878T330 825Q348 823 399 821T496 815T578
801Q721 774 819 687T897 461Q860 287 724 160T416 8Q287 -8 177 19T55 115Z" />
<glyph unicode="6" glyph-name="six" horiz-adv-x="1034" d="M55 457Q67 639 154 862T342 1196Q389 1251 463 1320T575 1393Q618 1399 675 1371T737 1305Q739 1270 709 1230T626 1145T567 1092Q434 951 387 768Q414 770 481 780T578 793T662 791Q818 762 911 669T989
414Q971 234 769 102T365 -10Q24 27 55 457ZM281 367T310 291T418 211Q547 205 650 282T748 485Q728 561 630 576T436 556T317 463Q281 367 310 291Z" />
<glyph unicode="7" glyph-name="seven" horiz-adv-x="978" d="M47 1196T44 1249T59 1337Q65 1345 73 1352T89 1365T109 1374T130 1380T154 1384T178 1387T203 1390T225 1391Q248 1395 484 1394T780 1393Q835 1391 885 1363T940 1292Q944 1255 928 1220T880 1139T842
1083Q703 845 623 627Q510 367 483 66Q479 21 405 -4T279 -6Q265 0 254 10T237 34T228 61T226 94T227 128T232 163T240 197T248 232T256 262Q336 594 381 705Q444 869 573 1147Q548 1153 343 1146T72 1171Q47 1196 44 1249Z" />
<glyph unicode="8" glyph-name="eight" horiz-adv-x="1110" d="M76 283Q62 437 143 543Q157 561 196 610T246 672Q230 692 203 750T168 846Q135 983 142 1082T215 1264Q274 1340 422 1383T694 1403Q794 1397 868 1343T974 1211T1003 1040T958 866Q915 782 852
725Q858 717 883 691T925 641T962 583T994 500T1008 399Q1014 104 719 12Q445 -74 250 49Q191 84 137 154T76 283ZM309 362Q309 303 360 255T483 205Q540 205 583 210T672 231T742 287T770 385Q772 432 716 486T594 549Q485 561 397 510T309 362ZM399 1139T387
1054T419 895T537 821Q625 819 688 861T762 967Q780 1069 735 1129T618 1193T469 1169Q399 1139 387 1054Z" />
<glyph unicode="9" glyph-name="nine" horiz-adv-x="1032" d="M53 918Q71 1100 204 1239T496 1395Q584 1403 691 1377T858 1286Q921 1223 934 1093T923 831T852 588Q772 395 673 257T422 14Q402 2 370 -5T302 -13T240 7T209 74Q207 101 214 122T239 163T272 196T314
229T352 258Q393 291 447 356T510 455Q502 459 409 482T283 522Q160 581 99 670T53 918ZM295 813Q334 731 433 703T629 692Q715 823 715 934Q715 1061 666 1123T506 1167Q402 1151 328 1043T295 813Z" />
<glyph unicode=":" glyph-name="colon" horiz-adv-x="460" d="M39 51Q35 141 100 240T279 315Q336 286 354 225T357 103T294 -6T188 -55Q139 -57 90 -27T39 51ZM61 686Q61 766 131 834T297 883Q358 869 384 803T377 655Q350 596 274 569T129 570T61 686Z" />
<glyph unicode=";" glyph-name="semicolon" horiz-adv-x="495" d="M45 -252Q45 -211 109 -134T170 -2Q174 35 170 102T176 184Q209 266 291 274Q350 278 375 224T394 94T370 -52T332 -156Q297 -213 241 -265T135 -317Q102 -317 75 -300T45 -252ZM82 664Q80 732
119 786T203 858Q256 883 301 883Q350 883 394 850T446 772Q462 688 406 621T275 543T142 565T82 664Z" />
<glyph unicode="&lt;" glyph-name="less" horiz-adv-x="854" d="M16 410Q18 492 152 631Q166 645 329 831T530 1044Q577 1079 653 1085Q688 1087 723 1042T743 961Q718 887 555 709T365 475Q404 436 570 371T782 246Q788 185 752 123T629 76Q596 80 418 153T184
254Q168 260 134 273T85 295T51 318T23 356T16 410Z" />
<glyph unicode="=" glyph-name="equal" horiz-adv-x="927" d="M57 631Q53 664 71 701T115 756Q154 781 403 783T754 772Q795 768 838 743T879 676Q879 647 873 627T854 594T824 576T779 566T718 563H641H545Q467 557 346 551Q334 551 294 548T231 544T171 545T115
556T77 583T57 631ZM102 262T85 303T90 391Q137 477 678 444L698 442Q718 442 725 441T752 438T782 431T806 419T825 401T834 375Q844 281 770 258Q719 242 459 236T150 246Q102 262 85 303Z" />
<glyph unicode="&gt;" glyph-name="greater" horiz-adv-x="870" d="M47 858Q43 915 79 955T170 1004Q238 1014 592 840Q598 838 618 827T652 808T689 789T729 766T766 744T802 719T829 695T849 671T856 649Q858 588 621 379Q328 115 276 104Q204 90 165 122T129
219Q127 282 348 436Q522 565 520 588Q465 639 324 694Q55 801 47 858Z" />
<glyph unicode="?" glyph-name="question" horiz-adv-x="958" d="M33 979Q17 1049 125 1212Q207 1337 372 1408T696 1415Q796 1376 863 1303T924 1122Q916 1011 843 932T653 779T496 664Q490 635 501 567T505 452T451 393Q295 354 279 459Q244 678 250 739Q254
757 262 771T286 799T313 820T350 840T387 860Q416 880 477 915T575 972T650 1037T702 1128Q704 1185 664 1223T571 1266Q489 1272 403 1194T279 1044Q269 1026 260 987T235 926T186 895Q141 887 91 915T33 979ZM287 131Q277 209 362 233Q446 256 498 202T506 84Q465
29 380 50T287 131Z" />
<glyph unicode="@" glyph-name="at" horiz-adv-x="1495" d="M78 434T74 682T152 1057Q240 1202 321 1281T538 1409T877 1462Q1033 1464 1174 1355T1384 1098Q1447 967 1430 809T1327 555Q1282 508 1211 473T1063 449Q993 457 907 520Q794 463 713 459Q625 455
554 512T473 664Q502 1051 856 1069Q944 1065 1023 1017T1110 907Q1112 889 1091 813T1075 684T1143 627Q1190 625 1221 681T1257 795Q1269 938 1189 1060T999 1235Q907 1276 802 1272T610 1231Q440 1157 345 981T301 561Q324 444 396 384T604 287Q610 285 625
282T649 277T670 270T692 261T709 251T724 238T731 221Q739 178 703 128T623 72Q586 66 493 95T352 150Q246 205 174 299Q78 434 74 682ZM702 680Q772 623 824 694T862 848Q794 899 736 834T702 680Z" />
<glyph unicode="A" glyph-name="A" horiz-adv-x="999" d="M24 72Q24 88 30 111Q37 140 53 186T76 250Q185 578 393 1106Q405 1137 430 1216T472 1338T527 1421T616 1466Q623 1467 630 1467Q667 1467 689 1448Q715 1425 720 1401T731 1307Q733 1282 735 1270Q755
1090 814 805T891 416Q899 367 924 247T958 82Q956 39 907 9Q861 -19 821 -19Q818 -19 815 -18Q762 -12 739 78T699 283T655 440Q641 438 567 430T444 413T360 389Q340 315 295 201T213 29Q177 -5 132 -6Q115 -6 97 -1Q24 18 24 72ZM438 612Q455 607 478 607Q503
607 537 613Q600 624 621 643Q621 649 621 656Q621 719 603 822Q584 936 563 969H545Q518 918 482 801T438 612Z" />
<glyph unicode="B" glyph-name="B" horiz-adv-x="919" d="M70 125Q76 322 109 723Q111 754 117 856T128 1022T146 1172T176 1309Q211 1358 323 1376Q400 1389 477 1389Q511 1389 545 1386Q643 1376 731 1317T827 1188Q828 1181 828 1173Q828 1143 815 1110Q799
1069 788 1053T745 997Q733 981 688 933T625 848Q654 817 707 787T780 735Q841 674 874 575Q893 517 894 463Q894 425 885 389Q850 258 745 175T513 63Q415 41 308 41Q277 41 246 43Q97 51 70 125ZM314 359Q314 292 326 264Q355 256 386 256Q450 256 528 289Q645
338 659 406Q663 427 664 446Q664 539 571 617T391 696Q373 696 354 692Q336 674 330 640T323 546T319 473Q314 416 314 373Q314 366 314 359ZM347 1004Q347 945 360 907Q364 903 371 903T393 911T421 927T451 947T481 970T508 989T526 1004Q549 1020 566 1053Q586
1090 586 1112Q586 1157 511 1184Q471 1198 435 1198Q402 1198 373 1186Q356 1145 349 1053Q347 1027 347 1004Z" />
<glyph unicode="C" glyph-name="C" horiz-adv-x="1019" d="M56 618Q56 730 78 827Q109 964 167 1050T281 1189T397 1270Q467 1307 575 1321Q638 1329 687 1329Q842 1329 850 1249Q851 1242 851 1236Q851 1165 748 1135Q721 1129 661 1121T553 1098Q492 1080 423
1019T328 885Q285 772 281 670Q281 659 280 647Q280 558 309 484Q342 401 433 355Q510 316 623 316Q643 316 664 317Q691 319 744 339T821 365Q841 369 861 369Q887 369 911 361Q954 348 965 317Q970 303 970 289Q970 229 879 174Q809 133 743 118T569 102Q432
102 276 186Q188 235 128 323T59 526Q56 564 56 600Q56 609 56 618Z" />
<glyph unicode="D" glyph-name="D" horiz-adv-x="1060" d="M59 127Q106 604 119 922Q122 956 122 989Q122 997 122 1005Q122 1033 121 1061Q119 1092 119 1122Q119 1159 122 1195Q127 1260 138 1310T185 1391T279 1425Q310 1425 387 1407Q680 1331 791 1233Q844
1184 887 1112Q963 993 985 846Q993 797 993 744Q993 639 963 522Q916 370 851 289T655 139Q534 78 430 54Q369 40 291 40Q286 40 281 40Q230 40 172 45Q109 51 86 68T59 127ZM299 338Q299 311 303 296T315 274Q348 269 380 269Q520 269 629 374Q762 502 772 715Q772
726 773 736Q773 923 637 1057Q590 1102 507 1139Q454 1163 411 1163Q409 1163 408 1163Q386 1163 367 1157Q357 1153 351 1139T341 1099T336 1053T333 999T332 950Q328 895 320 738T305 485Q305 475 302 437T299 382V338Z" />
<glyph unicode="E" glyph-name="E" horiz-adv-x="919" d="M67 247Q67 319 82 512Q88 651 115 1049Q117 1131 118 1165T130 1253T162 1329Q221 1395 487 1395Q563 1395 606 1392T700 1381T777 1354T807 1307Q808 1294 808 1282Q808 1236 795 1211Q779 1179 723
1178Q700 1176 637 1176Q414 1172 371 1143Q346 1127 338 1042Q338 1038 333 1004T326 948T323 894T327 841T344 807Q364 789 403 788Q434 788 503 803T604 819Q670 819 688 758Q691 742 691 727Q691 646 602 618Q575 614 512 606Q348 588 313 561Q287 533 287
432Q287 428 287 424Q287 332 291 297Q291 293 292 286T293 276L295 274Q314 273 336 274Q424 274 557 287Q573 289 634 301T731 317Q745 319 760 319Q783 319 809 315Q838 307 854 262Q862 239 862 215T854 166Q842 129 818 107T750 75T678 64T594 59Q465 59 227
43Q208 42 192 42Q118 42 97 72Q72 108 68 231Q68 238 67 247Z" />
<glyph unicode="F" glyph-name="F" horiz-adv-x="980" d="M92 106Q92 148 99 207Q112 316 113 346Q115 457 124 698T135 1079Q134 1108 135 1135Q135 1280 154 1337Q164 1366 183 1385T238 1413T295 1424T370 1428T438 1430Q462 1431 488 1431Q501 1431 515 1431Q609
1431 725 1421Q745 1419 808 1417T913 1409T989 1384Q1004 1349 1005 1322Q1005 1277 963 1251Q895 1210 782 1206Q763 1205 737 1205Q698 1205 642 1207Q595 1209 556 1209T484 1207Q419 1204 383 1186Q373 1143 365 979Q365 959 362 920T357 856T359 801T371
745Q406 735 594 717Q600 717 618 715T644 712T668 708T694 703T715 696T736 688T752 678T766 664T772 645Q776 623 776 604Q776 571 765 546Q748 506 705 498Q680 494 649 493Q623 493 593 497Q548 502 499 502Q478 502 456 501Q383 498 358 471Q350 463 345 446T337
403T333 360T331 314T330 281Q328 191 325 160T305 86T250 16Q206 -14 172 -14Q164 -14 158 -12Q108 -2 97 48Q92 71 92 106Z" />
<glyph unicode="G" glyph-name="G" horiz-adv-x="1122" d="M54 517Q54 741 154 956Q199 1087 375 1278Q496 1409 712 1409Q715 1409 719 1409Q801 1407 925 1367T1055 1264Q1057 1246 1051 1232T1039 1210T1023 1193T1010 1182Q966 1137 911 1136Q872 1136 827
1159Q769 1176 716 1176Q653 1176 596 1153Q490 1110 436 1018Q346 871 305 664Q293 609 291 546Q291 539 291 531Q291 475 304 413Q319 342 356 303Q397 264 485 242Q525 232 567 231Q616 231 666 246Q813 307 817 520Q792 533 758 533Q739 533 718 529Q691 524
663 524Q628 524 591 532Q524 546 510 604Q507 616 507 627Q507 650 521 670Q543 699 588 714T673 738T756 754Q768 756 772 756Q848 767 905 767Q995 767 1040 739Q1056 729 1065 711Q1072 695 1072 668Q1072 640 1069 613Q1067 596 1060 558T1053 516Q1030 399
1000 321T905 166Q753 8 514 8Q511 8 508 8Q309 10 194 100T61 393Q54 455 54 517Z" />
<glyph unicode="H" glyph-name="H" horiz-adv-x="985" d="M68 3Q68 52 78 115Q77 134 77 154Q77 204 81 258Q86 334 96 434T111 580Q129 1026 150 1165Q152 1185 154 1258T160 1363T174 1444T206 1515T262 1544Q272 1545 283 1545Q306 1545 330 1539Q365 1530
377 1518Q400 1493 401 1437Q401 1430 402 1422Q402 1367 389 1274L375 1165Q355 934 355 828Q355 801 356 782Q392 750 509 750Q513 750 516 750Q639 754 666 788Q709 888 715 1284Q714 1312 714 1335Q714 1416 725 1440Q748 1485 806 1504Q827 1511 847 1511Q883
1511 915 1489Q940 1471 942 1405Q942 1394 942 1382Q942 1322 934 1236Q924 1133 924 1106Q920 637 881 360Q879 337 872 270T857 155T842 90Q823 43 767 43Q729 43 674 66Q639 75 639 157Q639 166 639 175Q643 274 660 373Q667 414 668 448Q668 497 653 532Q639
538 621 539T576 538T535 535Q517 535 472 538Q446 540 425 539Q411 539 399 539Q370 537 350 526Q319 434 313 241T299 -4Q285 -47 231 -82Q199 -103 165 -103Q143 -103 119 -94Q72 -77 69 -20Q68 -9 68 3Z" />
<glyph unicode="I" glyph-name="I" horiz-adv-x="434" d="M62 151Q62 193 68 231Q70 260 71 369T74 512Q78 594 93 792T115 1096Q135 1397 143 1417Q157 1444 196 1462T270 1483Q344 1483 360 1436Q369 1391 370 1347Q370 1332 369 1318Q365 1260 353 1155T338
1020Q336 977 323 764T309 428Q309 102 281 59Q258 26 203 6Q170 -6 145 -6Q128 -6 115 0Q72 16 65 91Q62 122 62 151Z" />
<glyph unicode="J" glyph-name="J" horiz-adv-x="972" d="M18 467Q18 495 20 520Q51 610 173 610Q190 610 209 608Q256 565 268 445T291 295Q305 256 343 220T428 182Q432 182 436 182Q513 182 570 290Q630 404 647 535Q665 775 666 1031Q666 1117 664 1204Q664
1227 659 1263T652 1316T657 1362Q675 1415 751 1435Q775 1441 796 1441Q842 1441 877 1413Q893 1399 901 1362T909 1289T908 1195T907 1110Q909 1054 910 986Q910 935 908 877Q905 742 898 616T860 365T778 164Q721 80 629 24T424 -41Q413 -42 403 -42Q301 -42
203 29Q162 60 115 120T51 229Q35 280 25 367Q19 421 18 467Z" />
<glyph unicode="K" glyph-name="K" horiz-adv-x="1005" d="M59 193Q59 207 59 222Q59 318 70 493Q82 697 84 786Q90 837 93 968T107 1207T145 1374Q182 1431 239 1442Q245 1443 251 1443Q254 1443 256 1443Q302 1443 340 1399Q345 1352 345 1312Q345 1282 342
1256Q336 1196 320 1092T301 948Q375 979 509 1112T702 1280Q710 1286 740 1309T789 1346T827 1364Q840 1366 853 1366Q893 1366 924 1346Q965 1319 965 1278Q965 1225 850 1143Q617 955 461 778Q461 741 518 688Q674 545 850 303Q856 295 880 267T917 222T942
178T954 127Q952 76 910 39Q872 6 829 6Q824 6 819 6Q794 6 767 27T726 66T688 119Q596 250 467 401Q397 487 313 569Q303 536 303 448Q303 440 303 432Q303 396 304 351Q305 311 305 277Q305 169 293 127Q277 80 236 52Q208 33 170 33Q153 33 135 37Q102 43 82
87T59 193Z" />
<glyph unicode="L" glyph-name="L" horiz-adv-x="888" d="M78 155Q78 210 90 270Q113 583 160 967Q178 1231 209 1317Q247 1425 320 1425Q320 1425 321 1425Q322 1425 324 1425Q328 1425 332 1426Q386 1426 408 1401Q421 1383 421 1336Q421 1333 421 1329Q421
1319 421 1308Q418 1237 410 1182T390 1055T377 958Q373 921 356 779T334 565Q334 551 326 449T317 316T326 240Q359 233 407 233Q462 233 537 242Q615 254 644 257Q657 258 673 258Q694 258 721 256Q768 252 791 229Q823 197 823 159Q823 142 816 124Q794 66 737
57Q581 37 233 18Q215 18 191 16Q175 15 165 15Q159 15 155 15Q142 16 129 23Q86 43 80 115Q78 135 78 155Z" />
<glyph unicode="M" glyph-name="M" horiz-adv-x="1470" d="M32 122Q32 164 43 213Q172 999 174 1006Q178 1102 207 1217T272 1386Q297 1415 349 1422Q361 1424 372 1424Q410 1424 442 1405Q452 1399 461 1385T482 1347T501 1308T519 1262T532 1227Q557 1164 655
872Q718 673 743 637Q802 725 850 887Q881 969 932 1091T997 1251Q1071 1407 1098 1434Q1133 1473 1194 1480Q1202 1481 1210 1481Q1260 1481 1290 1442Q1302 1422 1316 1354T1333 1249Q1339 1179 1352 1052T1373 829T1386 625Q1388 590 1396 455T1411 248Q1413
234 1419 189T1427 119Q1428 109 1428 97Q1428 80 1426 58Q1423 22 1411 -4Q1399 -37 1326 -43Q1310 -44 1297 -44Q1247 -44 1223 -27Q1174 12 1163 248Q1155 400 1151 469Q1149 522 1147 629T1142 819T1133 950Q1121 930 1026 735Q977 608 907 471Q899 455 879
405T845 329T804 279T743 254Q651 262 582 483Q502 635 389 913Q387 893 383 817T374 675T360 575Q354 544 317 348Q309 301 295 223Q266 63 240 20Q218 -16 152 -16Q139 -16 125 -14Q55 -9 39 58Q32 88 32 122Z" />
<glyph unicode="N" glyph-name="N" horiz-adv-x="1163" d="M65 112Q65 159 76 228Q90 317 90 326Q98 471 128 736T166 1155Q182 1374 211 1405Q229 1425 278 1437Q301 1442 322 1442Q345 1442 367 1436Q383 1430 396 1417T422 1380T442 1339T465 1285T485 1233Q641
871 668 811Q793 530 825 483Q841 542 852 772Q856 838 861 947T870 1130Q871 1141 871 1159T870 1201T869 1246T870 1287Q872 1325 881 1350Q889 1373 914 1398T973 1430Q999 1435 1019 1434Q1070 1434 1090 1405Q1108 1382 1108 1315Q1108 1311 1108 1308Q1108
1232 1087 1102Q1079 1049 1061 695T1042 283V224Q1042 176 1040 155T1032 101T1014 49Q994 18 942 3Q917 -4 894 -4Q869 -4 846 4Q817 16 774 106Q747 157 690 259T592 443T518 602Q510 622 476 682T413 805T369 922Q355 848 341 618T319 342Q301 76 258 33Q235
6 186 0Q175 -1 166 -1Q129 -1 98 16Q70 35 66 87Q65 99 65 112Z" />
<glyph unicode="O" glyph-name="O" horiz-adv-x="1314" d="M68 567Q68 603 70 643Q93 1044 276 1217Q450 1424 684 1425Q691 1425 698 1426Q807 1426 912 1396Q1024 1364 1085 1290Q1198 1181 1233 1008Q1252 913 1252 815Q1252 735 1239 655Q1216 522 1194 455T1118
309Q928 0 551 -2Q315 0 178 211Q108 317 85 402Q68 465 68 567ZM313 612Q313 568 317 530Q325 446 402 348T551 225Q592 210 633 210Q636 210 638 210Q696 210 750 239Q844 289 895 369Q995 521 1004 786Q1000 905 939 1015T799 1151Q714 1179 638 1179Q624 1179
610 1178Q544 1172 480 1120T385 1008Q350 938 328 788Q313 691 313 612Z" />
<glyph unicode="P" glyph-name="P" horiz-adv-x="1083" d="M66 204Q67 216 67 230Q68 325 71 399T79 567T84 664Q109 1178 111 1210Q115 1267 120 1302T138 1375T179 1432T250 1454Q257 1455 264 1455Q279 1455 296 1452Q322 1448 361 1439T420 1425Q733 1364
877 1237Q922 1198 967 1129T1026 1004Q1035 961 1035 919Q1035 885 1029 851Q1016 776 981 721Q911 612 752 535Q684 504 542 475T328 422Q320 381 315 283T301 141Q299 129 296 105T289 65T279 39Q254 4 196 -16Q174 -24 154 -24Q120 -24 92 -2Q78 12 72 74Q67
127 66 204ZM321 720Q321 667 330 645Q436 647 535 669T714 749Q797 808 797 894Q797 977 724 1046Q647 1119 549 1155T360 1198Q358 1184 349 1142T337 1063T332 956Q332 949 332 940Q332 935 332 930Q332 887 325 801Q321 755 321 720Z" />
<glyph unicode="Q" glyph-name="Q" horiz-adv-x="1308" d="M62 592Q62 602 62 613T62 634Q62 759 88 864Q119 985 193 1095T371 1274Q475 1350 610 1364Q755 1362 905 1282T1133 1090Q1170 1024 1188 987T1224 890T1247 766Q1248 744 1248 723Q1248 575 1198 461Q1141
330 1018 193Q1006 181 975 157T928 116Q909 96 909 71Q909 37 934 -31Q956 -92 956 -132Q956 -144 954 -154Q946 -193 899 -222Q858 -248 823 -248Q818 -248 813 -248Q747 -244 709 -147Q701 -127 694 -91T677 -32T651 2Q633 13 599 13Q589 13 578 12Q558 10 538
11Q510 11 485 14Q182 90 102 330Q67 442 62 592ZM310 657Q310 631 311 604Q319 424 377 326Q402 281 461 253Q502 234 542 234Q560 234 578 238Q584 254 584 275Q584 311 567 365Q547 431 547 470Q547 482 549 492Q557 533 589 565T657 600Q660 600 663 600Q722
600 750 557Q779 512 797 442T842 342Q867 350 892 376T930 422T963 479Q1015 582 1015 689Q1015 791 967 897Q942 952 876 1016T762 1106Q710 1134 638 1134Q614 1134 588 1130Q522 1122 450 1057T350 918Q310 805 310 657Z" />
<glyph unicode="R" glyph-name="R" horiz-adv-x="1112" d="M82 73Q82 79 82 84Q84 113 92 166T102 238Q127 486 131 668Q131 734 143 1075Q144 1107 144 1137T143 1198Q142 1215 143 1232Q143 1275 146 1320Q151 1382 166 1413Q197 1485 315 1493Q325 1494 339
1494Q376 1494 438 1486Q524 1475 580 1456Q590 1452 629 1440T681 1422T729 1404T778 1382L821 1358Q850 1342 863 1328T897 1291T929 1245T950 1190T965 1124Q970 1087 970 1053Q970 880 842 764Q834 756 806 740T759 708T739 676Q737 658 750 629T790 560T821
512Q848 467 902 367T997 199Q999 195 1015 168T1038 130T1054 98T1067 57Q1068 48 1068 40T1067 23Q1057 -32 984 -55Q952 -65 924 -65Q888 -65 858 -49Q840 -39 824 -20T786 41L764 84Q744 121 696 223T610 387Q600 399 572 449T516 514Q507 516 497 516Q470
516 435 501Q387 479 373 453Q359 410 349 243T309 20Q289 -19 236 -39Q214 -48 190 -47Q158 -47 125 -31Q98 -15 89 20Q82 45 82 67Q82 70 82 73ZM361 989Q361 884 371 741Q387 741 404 745T434 755T467 772T496 789T528 813T557 834Q565 840 600 859T656 893T700
930T729 979Q733 999 733 1021Q733 1053 724 1085Q709 1140 666 1178Q629 1211 528 1225Q478 1232 443 1232T385 1225Q361 1155 361 989Z" />
<glyph unicode="S" glyph-name="S" horiz-adv-x="909" d="M77 1005Q77 1009 77 1012Q77 1068 92 1117Q127 1233 221 1315Q295 1376 387 1415Q439 1435 506 1435Q515 1435 524 1435Q602 1432 681 1385T788 1264Q804 1241 826 1195T850 1135Q853 1123 853 1109Q853
1070 825 1024Q789 965 737 965Q735 965 733 965Q715 965 697 980T668 1011T640 1055T616 1094Q565 1166 528 1182Q503 1192 479 1188Q403 1176 351 1117Q308 1069 308 1024Q308 1013 309 1004Q327 910 392 861T559 780T698 725Q768 680 815 593Q854 522 854 445Q854
428 852 412Q840 295 782 209Q739 143 660 90T475 16Q457 16 408 9T327 0Q321 0 315 0Q288 0 256 7Q217 16 193 41Q164 79 164 122Q164 134 166 145Q174 204 268 231Q297 239 400 246T549 287Q586 312 604 357Q613 379 613 404Q613 431 602 461Q596 475 581 488T550
511T508 532T468 550T427 564T395 575Q166 643 100 844Q77 928 77 999Q77 1002 77 1005Z" />
<glyph unicode="T" glyph-name="T" horiz-adv-x="1079" d="M34 1224Q34 1250 43 1274Q66 1323 246 1332Q317 1336 371 1336Q457 1336 506 1327Q555 1326 597 1326Q618 1326 638 1326Q696 1327 795 1332T926 1337Q934 1338 941 1338Q971 1338 1006 1326Q1049 1311
1055 1280Q1056 1273 1056 1267Q1056 1264 1056 1261Q1056 1232 1042 1202Q1024 1163 997 1149Q972 1137 861 1130T723 1098Q705 1082 696 1043T686 967T687 864Q687 842 687 824Q687 788 686 766Q683 702 683 585Q683 556 683 523Q683 503 683 483Q683 347 677
257Q670 154 647 76Q629 15 555 12Q553 12 550 12Q480 12 451 70Q443 80 437 96T428 135T425 177T425 225T427 270T431 317T434 356Q446 561 446 717Q444 733 444 826T436 990T406 1096Q395 1107 306 1107Q281 1107 249 1106Q233 1106 218 1105Q101 1105 63 1135Q45
1149 37 1193Q34 1209 34 1224Z" />
<glyph unicode="U" glyph-name="U" horiz-adv-x="1105" d="M63 705Q63 889 92 1102Q94 1120 99 1162T107 1220T117 1268T131 1315T151 1350T181 1381T223 1401Q257 1411 284 1411Q323 1411 344 1389Q356 1375 357 1339Q357 1332 358 1326Q358 1298 354 1271Q350
1237 342 1190T332 1124Q320 983 314 922Q311 887 311 836Q311 823 311 809Q311 782 311 751Q313 641 328 547Q353 385 401 313Q426 274 480 245Q517 225 560 225Q581 225 602 229Q661 241 699 335T748 534T762 756Q762 801 766 854Q766 920 774 1096Q774 1100
775 1163T779 1268T791 1329Q805 1366 844 1391T924 1423Q939 1426 951 1426Q989 1426 1010 1403Q1033 1376 1033 1332Q1033 1325 1032 1318Q1028 1264 1022 1198Q1020 1190 1020 1186Q1008 1088 1000 833T969 463Q916 191 762 80Q694 31 598 11Q559 3 519 3Q459
3 395 20Q317 45 240 114T131 260Q108 315 92 379Q84 418 74 492Q63 594 63 705Z" />
<glyph unicode="V" glyph-name="V" horiz-adv-x="1230" d="M46 1242Q46 1251 47 1257Q49 1318 87 1345Q117 1365 148 1365Q149 1365 151 1365Q159 1365 167 1364Q209 1358 238 1335Q254 1306 277 1223T325 1034T354 913Q387 796 432 612T496 356Q531 442 619 630T741
905Q751 930 800 1066T894 1295T983 1442Q1028 1471 1066 1471Q1089 1471 1110 1460Q1165 1431 1171 1374Q1171 1319 1136 1228T1040 1011T958 831Q833 526 598 51Q569 2 504 -27Q474 -40 446 -40Q412 -40 381 -20Q369 -12 361 9T342 75T328 135Q297 246 256 386T189
627T125 883Q46 1171 46 1242Z" />
<glyph unicode="W" glyph-name="W" horiz-adv-x="1667" d="M65 1342Q66 1357 68 1364Q86 1411 182 1422Q203 1424 221 1425Q285 1425 309 1393Q321 1377 328 1341T341 1253T348 1184Q407 877 432 459Q444 500 468 552T522 665T557 737Q580 790 694 1077Q741 1208
774 1233Q811 1260 865 1265Q872 1266 880 1265Q925 1265 956 1237Q970 1221 978 1190T989 1137T993 1065T997 999Q1001 970 1016 849T1047 635T1077 496Q1091 529 1127 629T1180 756Q1207 826 1246 948T1307 1130L1328 1195Q1345 1247 1358 1281T1386 1339Q1419
1388 1499 1411Q1522 1417 1541 1417Q1590 1417 1616 1376Q1620 1366 1620 1346T1616 1293Q1608 1231 1593 1190Q1573 1131 1531 1017T1457 812T1397 618Q1270 165 1157 74Q1107 31 1059 30Q1048 30 1036 33Q1005 37 981 63T938 138T912 216T889 301Q879 330 850
443T784 610Q729 544 660 387T537 158Q529 144 515 110T486 57T451 27Q413 12 377 11Q361 11 345 14Q295 24 268 68Q248 129 233 195T204 346T183 475T164 624T150 752Q140 809 122 943T92 1143Q65 1290 65 1342Z" />
<glyph unicode="X" glyph-name="X" horiz-adv-x="1034" d="M41 1327Q43 1370 96 1413T190 1460Q194 1460 199 1461Q221 1461 240 1451Q263 1440 280 1415T308 1368T335 1308T360 1251L428 1110Q432 1102 441 1083T457 1051T471 1024T488 1003T508 995Q528 995
554 1026T607 1106T639 1161Q664 1202 705 1260Q715 1272 732 1297T759 1335T789 1363T838 1386Q855 1392 872 1392Q899 1392 928 1378Q975 1355 983 1309Q985 1300 985 1291Q985 1265 972 1240Q955 1206 912 1161T862 1108Q833 1073 799 1020L770 977Q750 946
739 928Q729 912 708 877T675 822T654 772T645 719Q645 703 653 681T670 645T695 602T719 561Q803 416 868 260Q878 240 901 197T930 136T930 86T895 25Q838 -32 779 -32Q736 -32 690 -2Q659 113 606 229Q600 243 584 279T558 333T532 377T496 420Q486 416 477
407T463 391T449 368T434 344Q418 319 367 227T285 100Q254 69 204 54Q180 47 158 47Q132 47 108 56Q62 73 53 127Q52 135 52 144Q52 167 60 190Q71 223 85 243T125 295T156 334Q226 432 262 496Q268 506 291 542T323 592T342 631Q354 661 354 675Q354 726 301
819Q268 878 202 1010T102 1200Q96 1208 83 1229T63 1263T48 1294T41 1327Z" />
<glyph unicode="Y" glyph-name="Y" horiz-adv-x="1193" d="M31 1309Q31 1377 105 1435Q149 1469 189 1469Q217 1469 242 1452Q252 1446 264 1424T284 1381T305 1332T319 1296Q364 1208 397 1135Q413 1098 441 1024T492 904T551 823Q576 835 595 858T635 917T666
967Q803 1164 874 1260Q915 1311 936 1343Q997 1435 999 1438Q1017 1452 1050 1457Q1058 1458 1065 1458Q1090 1458 1115 1446Q1149 1430 1159 1393Q1162 1382 1162 1370Q1162 1353 1155 1333Q1143 1300 1128 1279T1086 1228T1057 1194Q1020 1147 957 1069T851
935T758 801Q727 754 694 694Q639 610 633 580Q623 537 616 393Q614 334 598 178Q586 55 582 39Q570 8 529 -16Q495 -37 456 -37Q449 -37 442 -37Q407 -33 389 -2T370 78Q370 90 369 102Q369 138 372 173Q375 219 383 274T391 352Q393 396 394 435Q394 558 369
627Q361 650 334 692T297 758Q279 811 226 902T156 1028Q138 1067 88 1165Q82 1175 69 1200T49 1238T37 1272T31 1309Z" />
<glyph unicode="Z" glyph-name="Z" horiz-adv-x="1048" d="M70 51Q70 112 117 229Q137 276 203 377Q215 395 238 438T274 500Q311 568 362 637Q499 825 547 922Q553 934 566 958T589 998T605 1038T614 1085Q602 1095 592 1101T570 1111T550 1115T525 1117T498
1118Q473 1120 419 1121T338 1124H236Q111 1144 96 1217Q93 1231 93 1245Q93 1281 112 1317Q138 1368 170 1370Q188 1372 401 1372Q419 1373 443 1373T497 1372Q555 1370 578 1370Q805 1370 881 1343Q961 1314 961 1258Q961 1230 948 1197Q934 1159 916 1133T868
1066T827 1010Q774 928 686 767T541 524T451 379Q406 295 401 256Q443 236 523 236Q547 236 575 238Q595 238 646 236Q671 235 690 235T721 236Q827 236 846 233Q924 229 936 211Q958 179 958 141Q958 109 942 72Q907 -8 846 -16Q789 -24 625 -29Q613 -29 556 -31Q528
-32 506 -32T469 -31T433 -30Q391 -30 324 -33Q267 -35 227 -35T166 -33Q133 -29 104 -11T72 31Q70 40 70 51Z" />
<glyph unicode="[" glyph-name="bracketleft" horiz-adv-x="905" d="M78 82T75 130T76 248T80 340Q80 543 84 621Q90 725 91 917T94 1184Q94 1192 95 1229T96 1280T98 1325T104 1373T115 1411T131 1446Q143 1462 188 1472T302 1486T431 1490T561 1490T651 1489Q700
1493 741 1490T803 1464Q842 1415 831 1347T778 1255Q727 1235 559 1236T330 1219Q320 1137 319 846Q309 277 319 227Q354 186 496 186Q506 186 563 189T654 192T728 180T780 147Q805 100 794 51T750 -12Q664 -51 373 -29Q346 -27 286 -25T199 -20T138 1T90 53Q78
82 75 130Z" />
<glyph unicode="\" glyph-name="backslash" horiz-adv-x="876" d="M10 1378Q12 1429 50 1466T131 1509Q151 1517 172 1511T205 1504T230 1489T251 1467T268 1437T284 1402T298 1364T313 1325Q409 1102 791 303Q799 283 821 244T854 178T864 131Q862 55 784 13T647
0Q622 12 561 166Q493 330 419 496T237 886T84 1206Q78 1220 58 1259T24 1330T10 1378Z" />
<glyph unicode="]" glyph-name="bracketright" horiz-adv-x="790" d="M74 1317Q54 1387 77 1433T170 1483Q213 1485 335 1483T504 1481Q682 1485 711 1415Q736 1354 711 1171Q703 1120 698 926Q696 858 692 743T687 578T688 426Q700 145 676 55Q674 45 666 37T641
22T615 11T580 1T547 -8Q498 -24 258 -31Q182 -35 148 -15T100 55Q77 137 126 167T279 204T418 225Q447 301 446 479Q442 794 461 983Q484 1204 469 1231Q459 1251 400 1252T275 1246T149 1254T74 1317Z" />
<glyph unicode="^" glyph-name="asciicircum" horiz-adv-x="983" d="M82 682T54 735T92 895Q203 1088 244 1147Q246 1149 285 1215T346 1312T413 1379T500 1415T577 1399T641 1346T687 1281T730 1197T766 1122Q795 1067 879 913Q945 788 940 737Q936 690 883 669T766
664Q727 680 698 728T629 878T580 1001Q578 1005 573 1017T564 1037T555 1055T544 1074T533 1088T520 1100T506 1104Q479 1104 449 1065T385 965T350 901Q344 891 328 866T302 825T277 787T249 750T225 720T201 698T180 688Q82 682 54 735Z" />
<glyph unicode="_" glyph-name="underscore" horiz-adv-x="1579" d="M72 -160T86 -109T141 -47Q280 -12 561 -33Q624 -35 729 -34T984 -31T1159 -29Q1169 -29 1215 -28T1293 -27T1366 -31T1434 -43Q1477 -57 1495 -113T1499 -225Q1495 -237 1484 -247T1453 -265T1411
-277T1357 -286T1301 -291T1238 -293H1178H1118H1067Q655 -293 395 -289Q215 -289 182 -281Q123 -267 98 -214Z" />
<glyph unicode="`" glyph-name="grave" horiz-adv-x="686" d="M23 1452Q27 1540 125 1554Q152 1556 172 1548T222 1519T268 1489Q293 1475 346 1443T444 1385T526 1339Q534 1335 549 1327T571 1315T590 1304T608 1291T621 1279T634 1265T641 1249Q657 1194 630
1142T571 1081Q563 1073 541 1079T510 1085T481 1097T454 1114T430 1132T406 1149Q347 1190 255 1242T119 1321Q84 1344 70 1355T38 1392T23 1452Z" />
<glyph unicode="a" glyph-name="a" horiz-adv-x="892" d="M56 369Q56 463 137 545Q194 602 295 635Q334 647 407 654T535 669T604 694Q621 722 622 753Q622 780 608 809Q579 870 539 877Q459 865 359 814Q264 766 226 766Q224 766 223 766Q178 782 168 842Q167
850 167 857Q167 902 199 930Q236 963 301 991Q414 1048 493 1070Q533 1081 576 1081Q617 1081 659 1071Q714 1051 760 986T819 840Q825 809 826 772Q827 754 827 738T826 708Q825 680 821 637T814 575T804 510T795 457Q750 217 719 115Q707 78 671 38T602 -6Q593
-7 581 -8Q559 -8 526 -3Q475 4 449 16Q373 45 333 63T241 117T145 197Q67 264 61 319Q56 344 56 369ZM268 412Q270 273 520 236Q590 254 590 467Q575 479 506 479Q480 479 446 477Q311 471 268 412Z" />
<glyph unicode="b" glyph-name="b" horiz-adv-x="935" d="M61 237Q61 258 62 275Q65 315 74 389T86 496Q92 578 150 1100Q152 1116 157 1192T169 1322T188 1409Q217 1458 284 1464Q290 1465 296 1465Q353 1465 381 1413Q389 1395 393 1373T395 1316T391 1265T383
1205T377 1157Q372 1090 372 1042T377 965Q402 942 441 935T536 926T618 920Q739 897 825 824T918 633Q918 626 918 618Q918 434 717 244Q606 144 479 82Q426 55 334 25Q257 -1 216 -1Q208 -1 201 0Q82 12 63 174Q61 209 61 237ZM272 217Q317 217 415 273T555 377L578
401Q603 424 608 431T633 460T660 495T680 527T695 563T698 596Q692 678 583 717Q509 743 432 743Q396 743 358 737Q299 678 291 469L272 217Z" />
<glyph unicode="c" glyph-name="c" horiz-adv-x="890" d="M50 452Q50 546 94 655Q151 774 254 846T489 932Q516 935 547 935Q601 935 667 926Q770 912 782 864Q786 847 786 831Q786 793 766 761Q737 715 694 709Q674 704 646 704Q625 704 598 707Q560 711 537
711Q532 711 528 711Q520 711 514 711Q403 697 326 607Q268 541 268 478Q268 457 274 436Q305 346 380 295Q437 256 515 256Q540 256 567 260T633 274T695 290T744 294T788 277T821 227Q828 210 828 195Q828 141 746 98Q648 47 514 47Q504 47 494 47Q177 53 66
346Q51 396 50 452Z" />
<glyph unicode="d" glyph-name="d" horiz-adv-x="970" d="M50 458Q50 464 50 469Q50 491 53 514Q63 592 94 649Q170 796 301 870Q436 942 651 942Q700 979 709 1171T737 1403Q747 1421 786 1431Q804 1435 818 1435Q821 1435 824 1435Q839 1435 852 1432Q875 1428
889 1414T909 1374T919 1321Q921 1311 921 1298Q920 1296 920 1292Q920 1276 919 1256Q916 1218 914 1193T906 1127T899 1071Q895 1005 880 837T858 586Q855 510 855 441Q855 407 856 375Q857 327 857 276T856 170Q854 61 844 -8Q827 -122 726 -122Q704 -122 678
-117Q651 -105 634 -44T608 31Q569 39 503 47T384 66T289 100Q215 141 149 211T61 352Q50 402 50 450Q50 454 50 458ZM271 472Q271 410 311 354Q356 295 452 255Q520 227 574 227Q596 227 616 231Q624 251 629 294T637 395T641 471Q649 551 649 605Q649 666 639
694Q629 708 611 713Q602 715 594 715Q591 715 589 715Q583 715 578 715Q562 713 527 708T465 700Q350 690 295 571Q271 519 271 472Z" />
<glyph unicode="e" glyph-name="e" horiz-adv-x="917" d="M73 524Q73 664 141 758Q178 828 240 882T365 954Q443 983 513 983Q577 983 635 959Q756 909 821 758Q833 738 848 689T864 614Q865 608 865 603Q865 566 842 528Q815 485 774 471Q743 461 669 429T541
383Q398 342 344 324Q356 277 392 257T504 219Q527 214 549 214T593 219Q637 229 662 243T721 264T776 254Q807 219 807 182Q807 139 776 115Q696 58 571 42Q537 38 507 38Q425 38 367 68Q244 119 189 177T92 362Q73 449 73 524ZM290 564Q290 536 299 522Q302 522
307 522Q324 522 356 528Q397 536 452 551T532 571Q569 579 605 603T649 651Q622 727 575 759Q542 781 503 781Q487 781 469 777Q410 764 344 711Q307 682 295 614Q290 585 290 564Z" />
<glyph unicode="f" glyph-name="f" horiz-adv-x="966" d="M22 593Q22 608 27 625Q33 660 68 682T147 707Q159 709 166 707T179 706T186 706T190 707L194 710Q195 711 198 716T205 727Q213 737 215 768T215 828T217 883Q244 1137 305 1280Q356 1401 420 1470T588
1563Q621 1570 651 1570Q795 1570 877 1409Q906 1352 914 1289Q918 1265 918 1246Q918 1217 909 1200Q897 1159 856 1143Q833 1134 810 1133Q793 1133 776 1139Q766 1139 756 1145T737 1165T724 1189T711 1217T700 1243T687 1277T669 1318T647 1345T610 1360Q569
1360 538 1310T494 1211T467 1092Q465 1076 463 1069Q449 1001 443 884Q442 860 442 839Q442 754 459 705Q484 695 524 695Q534 695 546 695Q555 695 564 696Q612 696 662 682Q695 672 711 642T726 582T709 526T666 494Q643 490 563 487T449 465Q438 442 438 322Q438
302 438 280Q438 262 438 245Q438 114 424 59Q410 20 366 6Q343 -1 320 -1Q299 -1 279 5Q236 18 227 51Q216 94 216 200Q216 230 217 266T218 332Q218 439 207 487Q176 495 150 496T112 498T83 508T41 543Q22 563 22 593Z" />
<glyph unicode="g" glyph-name="g" horiz-adv-x="894" d="M42 -329Q42 -318 45 -307Q64 -230 127 -230Q140 -230 154 -233Q160 -235 224 -263Q280 -287 328 -287Q335 -287 342 -287Q371 -285 412 -256T475 -201Q561 -70 562 62Q562 71 561 80Q533 85 479 85Q470
85 460 85Q437 85 419 85Q384 85 369 86Q263 94 169 170T57 397Q54 424 54 450Q54 457 54 463Q54 576 98 674Q155 821 306 910Q436 987 569 987Q590 987 612 985Q770 969 809 930Q829 912 835 850Q837 824 837 801Q837 794 837 786Q837 762 836 741Q832 682 824
527T809 285Q805 248 800 180T789 60T772 -37Q743 -154 684 -264Q598 -416 446 -475Q384 -499 321 -499Q238 -499 150 -459Q97 -434 66 -392Q43 -361 42 -329ZM264 446Q264 393 297 351Q336 301 420 285Q458 277 487 277Q547 277 569 311Q602 362 608 563Q608 735
600 768Q544 781 509 781Q488 781 475 776Q426 760 378 710T301 595T265 466Q264 456 264 446Z" />
<glyph unicode="h" glyph-name="h" horiz-adv-x="876" d="M68 118Q68 157 74 205Q84 289 107 439T145 707Q153 785 167 899T188 1073Q190 1091 193 1131T199 1196T205 1255T216 1312T232 1358T257 1395T291 1413Q305 1416 319 1416Q340 1416 361 1409Q397 1397
414 1372Q428 1349 430 1318T428 1262T417 1204T408 1155T403 1116T396 1072T390 1028T385 986T382 953T383 930T389 922Q434 924 516 971Q579 1007 632 1007Q648 1007 664 1004Q727 992 762 905T803 698Q805 694 805 636Q805 592 804 517Q801 342 801 317Q802
284 801 255Q801 93 782 43Q774 16 758 0Q728 -28 685 -28Q678 -28 671 -28Q619 -23 600 8Q590 24 590 79T595 253T600 446V510Q600 565 598 611T590 703T571 760Q491 760 426 694Q373 647 342 561Q324 477 311 342T291 158Q279 37 258 6Q233 -38 168 -38Q160 -38
152 -37Q68 -26 68 118Z" />
<glyph unicode="i" glyph-name="i" horiz-adv-x="407" d="M37 104T37 113T38 133Q39 156 40 168T45 209T51 248Q55 283 102 672Q131 887 246 897Q251 898 255 898Q279 898 310 882Q348 863 354 825Q356 813 354 796T342 743T330 694Q287 475 281 330Q279 312 279
253T275 155T262 98Q239 53 168 34Q143 27 122 27Q82 27 57 51Q49 59 44 72T38 98Q37 104 37 113ZM165 1123Q165 1162 191 1196Q221 1235 264 1245Q280 1248 294 1248Q330 1248 356 1230Q393 1204 395 1149Q395 1090 341 1057Q304 1035 266 1034Q248 1034 229 1039Q172
1055 166 1112Q166 1117 165 1123Z" />
<glyph unicode="j" glyph-name="j" horiz-adv-x="460" d="M-264 -446Q-225 -423 -167 -411T-98 -395Q-71 -383 -48 -359T-10 -310T21 -242T45 -171T63 -87T78 -6T91 81T102 162Q141 453 143 586Q147 705 160 788Q162 794 164 816T168 848T175 876T185 905T199
928T222 949T252 961Q270 965 287 965Q309 965 329 957Q365 944 377 913Q387 886 388 855Q388 851 388 847Q388 818 382 779Q375 735 375 725Q365 621 354 449Q350 377 331 234T309 66Q293 -63 281 -119Q277 -139 265 -210T240 -311Q222 -354 176 -420T96 -514Q45
-555 6 -575Q-45 -602 -104 -614Q-129 -620 -154 -620Q-199 -620 -242 -600Q-305 -570 -305 -514Q-305 -470 -264 -446ZM176 1330Q176 1364 196 1397Q222 1440 262 1450Q286 1458 309 1458Q329 1458 347 1452Q387 1440 395 1403Q398 1390 398 1378Q398 1329 352
1289Q307 1250 261 1250Q248 1250 233 1253Q186 1264 178 1309Q176 1320 176 1330Z" />
<glyph unicode="k" glyph-name="k" horiz-adv-x="847" d="M72 182V307Q74 323 74 334Q101 909 150 1350Q158 1426 166 1461T197 1530T264 1575Q284 1581 301 1581Q340 1581 367 1552Q367 1536 367 1520Q367 1446 359 1358Q350 1249 336 1116T315 913Q309 836 309
782Q309 749 311 725Q338 735 430 793Q516 850 559 881Q565 885 589 905T625 932T658 945T701 944T745 913Q763 897 769 879T766 840T746 804T709 766T670 734T629 702Q619 694 612 690Q604 686 586 673T555 651T529 631T506 606T496 582Q494 564 501 551T527 519T553
492Q633 402 739 295Q743 291 756 279T776 261T792 244T808 222T818 200T825 172Q825 166 826 160Q826 107 794 74Q769 48 728 48Q710 48 688 53Q657 65 609 112T505 221T422 307L410 319Q398 333 384 349T352 382T318 413T293 432Q293 229 276 160Q264 101 195
82Q174 77 157 77Q122 77 101 97Q72 127 72 182Z" />
<glyph unicode="l" glyph-name="l" horiz-adv-x="425" d="M47 79Q47 93 48 108Q51 158 57 204T72 304T84 379Q147 938 158 1059Q160 1084 164 1162T173 1278T191 1371T231 1457T297 1499Q320 1503 337 1504Q338 1504 340 1504Q356 1504 366 1493Q377 1481 384
1470T393 1435T395 1393T392 1346T387 1297T382 1250T377 1206Q365 1026 334 724T295 328Q275 121 252 63Q232 12 177 -19Q147 -36 121 -37Q99 -37 80 -25Q60 -15 52 22Q47 47 47 79Z" />
<glyph unicode="m" glyph-name="m" horiz-adv-x="1372" d="M68 175Q68 217 76 264Q78 287 83 377T94 518Q104 620 113 750Q117 916 135 961Q155 1012 203 1034Q217 1043 239 1043Q244 1043 249 1042Q279 1040 295 1026Q332 997 334 909Q334 895 334 882Q334 807
325 727Q317 658 316 630Q316 620 317 614Q333 624 406 721Q408 725 429 754T458 794T486 831T521 870T554 898T592 922Q624 940 651 939Q658 939 665 938Q697 932 720 921T759 875T786 808T803 728T811 641T813 555Q901 635 928 676Q942 699 976 741T1020 799Q1024
805 1037 823T1059 853T1081 882T1108 911T1137 934T1170 950T1205 954T1245 946Q1263 938 1275 919T1292 867T1298 804Q1299 792 1299 778Q1299 757 1297 730Q1294 686 1291 660T1283 590T1276 537Q1276 533 1257 324Q1239 134 1229 109Q1200 39 1121 34Q1117
34 1113 34Q1042 34 1022 117Q1019 134 1019 163Q1019 228 1034 356Q1036 364 1042 407T1051 469T1053 521T1049 584Q1002 559 967 489Q955 469 924 415T874 327T825 251T766 182Q733 151 689 137Q669 131 650 131Q627 131 606 140Q559 161 559 214Q559 238 571
328Q575 357 585 413T601 503Q605 527 605 556Q605 568 604 581Q602 625 590 655Q570 651 551 636T523 608T497 563T475 524Q465 508 443 471T408 414T377 362T344 299T317 233Q266 108 225 86Q200 72 159 71T100 80Q72 97 69 150Q68 162 68 175Z" />
<glyph unicode="n" glyph-name="n" horiz-adv-x="944" d="M72 116Q72 144 82 242Q84 256 84 264Q88 311 98 395T116 545T125 678Q125 688 126 716T128 758T130 797T134 837T141 872T152 904T168 928T189 949T217 958Q230 960 242 961Q271 961 290 946Q316 926
323 883T330 794V690Q330 633 336 600Q399 661 422 694Q496 807 594 881Q677 942 741 942Q777 942 807 922Q825 912 845 864T870 766Q871 750 872 729Q872 648 853 495Q829 301 829 242Q829 230 831 204T834 161T829 133Q809 78 731 65Q715 62 702 62Q646 62 616
104Q614 134 615 167Q615 274 635 414Q649 526 649 598Q649 634 645 662Q627 660 611 651T578 623T551 592T524 553T500 518Q453 457 433 425T391 353T350 283Q344 273 310 200T247 82T193 33Q171 28 152 28Q117 28 98 46Q72 71 72 116Z" />
<glyph unicode="o" glyph-name="o" horiz-adv-x="956" d="M50 505Q50 514 50 523Q55 671 127 776Q131 782 141 798T155 819T166 835T177 852T188 866T203 883T219 898T239 915T262 934Q340 993 410 1004Q460 1013 506 1013Q511 1013 515 1013Q662 1013 765 928Q903
813 909 610Q913 584 913 559Q913 469 867 382Q809 270 702 193Q588 118 459 118Q433 118 406 121Q330 129 250 169T123 258Q50 368 50 505ZM272 473Q284 393 354 347Q399 317 456 317Q486 317 520 326Q571 340 624 394T690 514Q697 548 697 580Q697 668 643 738Q582
816 498 817Q480 817 461 813Q379 799 317 685Q269 597 269 518Q269 494 272 473Z" />
<glyph unicode="p" glyph-name="p" horiz-adv-x="1011" d="M53 -244T53 -224T56 -168T59 -115Q61 -21 76 303Q99 633 152 883Q193 975 397 985Q577 977 685 944T885 811Q953 729 965 606Q967 585 967 564Q967 464 918 375Q881 307 802 236T643 125Q596 92 545
80T419 62T305 47Q297 22 294 -10T288 -87T283 -156Q275 -244 229 -297Q196 -335 146 -335Q126 -335 104 -330Q84 -324 72 -310T56 -270ZM295 296Q295 270 297 248Q306 248 315 248Q438 248 549 301Q668 358 713 459Q739 517 739 568Q739 641 684 697Q602 781 473
782Q456 782 438 780T408 776T385 773T369 765T358 755T350 739T345 720T341 694T336 662Q295 423 295 296Z" />
<glyph unicode="q" glyph-name="q" horiz-adv-x="892" d="M28 487Q28 621 102 727Q151 795 216 832T395 911Q542 966 676 973Q682 974 687 974L698 973Q815 973 831 911Q833 887 833 880Q833 871 831 865Q829 850 819 805T807 743Q795 663 778 485T745 217Q712
-102 711 -119Q701 -166 688 -276T668 -420Q654 -479 601 -500Q581 -508 561 -508H557Q526 -508 496 -492Q454 -471 454 -389Q454 -321 467 -250Q469 -223 476 -182T485 -119T486 -70T477 -25Q467 -2 444 15T364 58T299 88Q229 121 147 195Q51 258 32 428Q29 458
28 487ZM258 483Q258 411 301 356Q360 284 516 250Q547 365 559 496Q563 531 571 583T584 673Q586 692 586 709Q586 715 586 721Q586 732 586 743Q508 741 427 713T315 645Q262 576 258 496Q258 490 258 483Z" />
<glyph unicode="r" glyph-name="r" horiz-adv-x="841" d="M74 100Q74 130 82 193Q88 263 99 487T121 803Q123 817 126 850T131 894T137 928T144 960T153 984T168 1004T187 1018T213 1029T246 1032Q251 1032 256 1033Q300 1033 328 1001Q336 976 339 949T341 906T337
852T334 805Q357 797 386 809T452 844T506 874Q626 919 694 919Q707 919 719 918Q754 914 783 896T819 848Q821 838 821 828Q821 786 792 756Q756 719 715 709Q598 680 549 664Q486 646 406 592T326 510Q324 485 322 387T314 212T297 96Q283 47 254 35Q232 26 190
26Q176 26 160 27Q135 29 110 44T76 78Q74 85 74 100Z" />
<glyph unicode="s" glyph-name="s" horiz-adv-x="804" d="M86 176Q94 209 135 225Q154 234 176 234Q202 234 233 222Q283 203 330 203Q337 203 343 204Q395 207 449 281Q453 306 442 330T405 377T359 416T305 453T264 481Q108 596 102 686Q101 700 101 715Q101
748 108 785Q117 839 137 866Q231 983 424 1004Q426 1004 428 1004T433 1004Q451 1004 496 999Q555 993 582 983Q742 920 752 827Q752 824 752 821T752 816Q752 788 735 764Q715 735 692 721Q682 707 654 714T605 730T555 756T516 778Q460 793 421 793Q338 793
334 725Q332 705 349 684T385 648T428 618T455 600T483 578T516 552T545 527T577 496T604 465T630 428T647 390T660 345T664 297Q658 141 514 45Q471 16 398 5Q363 0 333 0Q299 0 270 6Q139 35 105 67Q82 88 82 130Q82 153 86 176Z" />
<glyph unicode="t" glyph-name="t" horiz-adv-x="919" d="M21 795Q22 808 25 819Q29 848 52 875T106 915Q116 917 210 925T324 946Q336 954 346 982T360 1033T371 1096T377 1141Q379 1157 385 1210T396 1284T417 1338T464 1386T541 1403Q548 1403 555 1403Q612
1403 622 1372Q626 1360 626 1345Q626 1318 612 1284Q608 1251 594 1188Q578 1119 578 1088T584 981Q606 964 644 964Q661 964 681 968Q728 976 779 976Q797 976 816 975Q887 971 895 930Q898 916 898 901Q898 875 888 849Q873 809 840 793Q809 777 700 768T571
741Q557 729 546 683T530 594T518 492T512 428Q502 324 481 188Q479 178 473 132T459 51T439 -26T404 -93T352 -123Q343 -124 335 -124Q308 -124 278 -115Q238 -103 227 -82Q224 -76 225 -63Q225 -46 229 -15Q237 37 249 94T264 160Q295 340 297 389Q301 418 319
680Q309 702 253 702Q231 702 201 698Q149 692 117 692T72 698Q41 714 29 753Q22 776 21 795Z" />
<glyph unicode="u" glyph-name="u" horiz-adv-x="876" d="M71 475Q72 531 74 600Q78 674 85 718T111 811T172 882Q207 901 261 901Q264 901 266 901Q271 901 276 901Q313 878 316 823Q317 812 317 802Q317 759 307 723Q305 705 301 664Q293 603 290 569T285 475Q285
464 284 454Q284 409 292 382Q301 348 317 315T370 269Q387 264 407 264Q430 264 457 270Q512 278 554 380T604 584Q607 607 607 675Q607 709 606 754Q606 777 606 795Q606 891 614 907Q626 950 684 969Q708 977 727 977Q729 977 731 977Q754 977 768 967Q830 931
830 704Q830 683 829 662Q825 525 791 403Q738 213 628 127Q550 66 420 66Q368 66 307 76Q102 125 78 328Q72 383 71 475Z" />
<glyph unicode="v" glyph-name="v" horiz-adv-x="931" d="M51 819Q51 853 70 881Q97 918 156 929Q170 932 182 931Q223 931 252 903Q270 883 311 711Q364 494 385 346Q418 401 482 532T582 719Q596 746 620 805T667 900T721 958Q752 982 787 983Q802 983 818 978Q870
963 887 905Q897 852 897 847Q897 832 888 811Q877 784 869 771T844 733T819 692Q790 643 710 493T551 205Q475 76 426 40Q391 14 356 14L328 18Q299 24 281 50T255 101T236 180Q234 192 231 199Q211 277 139 492T61 764Q50 794 51 819Z" />
<glyph unicode="w" glyph-name="w" horiz-adv-x="1392" d="M72 694Q73 730 74 769Q78 877 102 907Q130 941 187 941Q192 941 197 941Q260 938 283 901Q295 883 295 820T291 677Q288 624 288 596Q288 582 289 573Q309 311 342 268Q391 280 436 363T518 536T580
645Q619 664 649 664Q687 664 711 635Q736 604 763 509T815 338T862 258Q863 258 865 258Q900 258 971 366Q1045 478 1069 575Q1081 626 1102 768T1141 948Q1170 991 1233 996Q1239 996 1244 997Q1300 997 1335 948Q1336 921 1337 894Q1337 670 1246 451Q1145 205
997 104Q898 39 825 39Q824 39 823 39Q771 39 731 72Q713 88 667 177T614 268Q610 270 599 256T572 219T538 170T502 123T471 92Q414 43 317 43T174 115Q160 135 150 160T130 230T117 291T103 370T92 436Q84 495 77 579Q72 632 72 694Z" />
<glyph unicode="x" glyph-name="x" horiz-adv-x="915" d="M35 123T35 128T36 139Q37 149 43 163T53 186T66 208T80 226T94 244T106 260Q126 285 152 310T207 369Q311 484 322 500L217 629Q111 758 96 817Q93 833 93 848Q93 885 116 911Q148 948 186 949Q188 949
191 949Q227 949 246 934Q279 918 352 799Q360 789 408 726T473 645Q487 651 555 738T699 895Q758 949 803 949Q816 949 827 944Q893 917 893 870Q893 822 834 743Q768 657 690 579T604 485Q635 411 750 268Q756 260 773 238T800 203T822 171T843 136T852 102Q854
92 854 83Q854 39 815 12Q789 -6 760 -6Q736 -6 711 6Q658 33 569 156T440 309Q393 289 308 174T162 43Q139 36 119 36Q65 36 41 90Q37 103 36 116Q35 123 35 128Z" />
<glyph unicode="y" glyph-name="y" horiz-adv-x="921" d="M56 807Q56 811 56 814Q56 822 57 829Q67 903 122 939Q150 958 181 958Q209 958 238 942Q244 938 250 932T261 915L270 897Q274 889 278 874T286 849T293 823T299 797Q412 453 512 319Q524 339 604 612T727
936Q739 952 759 962T804 975Q807 975 810 975Q830 975 850 963Q873 949 887 915Q893 903 893 881Q893 877 893 874Q893 776 806 508Q694 166 580 -41Q572 -57 520 -160T424 -313Q422 -315 410 -330T387 -358T358 -389T321 -420T281 -444T237 -460Q229 -461 220
-461Q206 -461 191 -458Q167 -453 145 -436Q114 -413 109 -388T120 -337T156 -291T202 -249T236 -219Q345 -98 381 66Q383 95 369 124T330 189T295 246Q277 287 211 404T117 606Q113 616 97 656T73 716T59 770Q56 786 56 800Q56 804 56 807Z" />
<glyph unicode="z" glyph-name="z" horiz-adv-x="839" d="M57 209Q57 212 57 215T57 221Q57 240 61 261Q67 289 76 309T104 356T134 395T166 431T190 459Q241 520 334 613T475 743Q449 752 364 753Q355 753 346 753Q336 753 326 753Q238 753 168 761Q90 770 82
807Q81 820 80 831Q80 883 111 903Q166 940 405 941Q467 941 543 938Q711 938 745 877Q750 855 750 834Q750 809 743 786Q731 745 717 727T666 677T616 633Q596 610 528 547T406 427T330 330Q348 318 528 307Q555 307 598 308T660 309T704 303T740 281T758 236Q759
226 759 217Q759 174 726 151Q686 123 625 121Q620 121 610 121Q545 121 291 133Q281 133 251 135T206 138T165 142T125 150T95 163T69 182T57 209Z" />
<glyph unicode="{" glyph-name="braceleft" d="M43 676Q41 725 67 749T158 797Q187 807 229 817T307 844Q289 895 243 924T155 985T100 1073Q69 1206 153 1335T356 1538Q397 1565 496 1596T655 1626Q696 1624 731 1603T774 1552Q784 1515 757 1468T696 1407Q665
1393 618 1396T537 1395Q467 1381 397 1314T330 1188Q334 1143 372 1098T453 1021T529 941T561 838Q561 809 522 762T446 682L408 649Q422 641 444 627T506 577T545 514Q551 428 440 293Q428 279 399 248T350 196T316 147T303 98Q315 8 518 18Q541 20 573 25L623
31Q639 33 655 28T680 6Q709 -43 680 -102T602 -172Q475 -205 291 -154T72 -14Q52 56 63 113T102 215Q116 238 172 289T268 386T303 465Q299 490 279 502T224 520T180 530Q110 561 78 592T43 676Z" />
<glyph unicode="|" glyph-name="bar" horiz-adv-x="411" d="M49 -98Q49 -39 57 87T66 262Q66 493 86 913Q88 962 91 1089T98 1288Q100 1321 101 1382T103 1478T112 1560T134 1634T175 1681T242 1706Q310 1712 356 1665Q358 1479 354 1254T344 865T327 423T311
0Q309 -29 309 -75T308 -145T304 -203T293 -264Q281 -305 238 -336T145 -364T66 -311Q49 -280 49 -98Z" />
<glyph unicode="}" glyph-name="braceright" horiz-adv-x="731" d="M33 1352T33 1403T71 1492T201 1520Q228 1518 348 1475Q442 1438 522 1380T612 1253Q620 1245 614 1217T608 1180T598 1144T585 1108T569 1074T553 1040Q547 1028 535 1003T514 961T501 922T498
883Q502 817 569 786Q690 741 696 690Q706 612 598 553Q575 541 537 530T477 507T451 471Q447 451 483 406T559 299T598 182Q598 -31 338 -137Q303 -151 259 -153T176 -135T135 -66Q133 -21 156 5T231 49Q237 51 264 60T301 74T331 88T362 106T381 129T389 160Q389
230 297 299Q201 367 186 451Q172 531 219 590T336 678Q246 803 256 883Q260 926 318 1022T371 1176Q363 1239 272 1276Q249 1286 181 1296T73 1329Z" />
<glyph unicode="~" glyph-name="asciitilde" horiz-adv-x="1366" d="M80 408T59 474T76 586Q131 652 225 713Q405 828 561 831Q622 833 660 802T716 724T752 632T805 556T895 530Q944 534 994 576T1077 664T1149 735T1225 737Q1301 678 1278 592T1157 414Q975
248 784 283Q749 289 710 312T647 360Q618 389 577 474T500 565Q484 569 459 562T418 546T373 521T334 498Q311 488 269 461T196 420T137 406Q80 408 59 474Z" />
<glyph unicode="&#xa0;" glyph-name="uni00A0" horiz-adv-x="563" />
<glyph unicode="&#xa1;" glyph-name="exclamdown" horiz-adv-x="512" d="M43 10T42 43T47 103T62 167T74 219Q82 278 101 443T133 696Q160 872 186 907Q209 938 258 959T357 971T420 909Q426 854 421 826T398 727T373 621Q326 336 326 330Q322 299 319 244T311
154T297 79T264 14T203 -25Q176 -37 125 -35T57 -8Q43 10 42 43ZM270 1280T235 1332T242 1450Q271 1493 332 1504T443 1486T492 1399Q492 1364 467 1342T418 1311T348 1294Q270 1280 235 1332Z" />
<glyph unicode="&#xa2;" glyph-name="cent" horiz-adv-x="962" d="M84 250T66 421T154 713Q260 832 444 895Q448 909 460 967T483 1042T528 1077T608 1095T676 1055Q692 1043 679 973T668 885Q670 877 716 869T812 841T870 786Q895 690 825 657Q766 632 645 633Q639
604 633 506T621 369Q650 351 710 365T838 376T922 330Q934 283 902 223T821 152Q794 146 724 143T625 131H623Q600 123 588 99T567 38T549 -14Q514 -73 395 -45Q360 -37 363 12T354 90Q338 113 279 136T211 166Q84 250 66 421ZM305 508T306 472T332 409T401 377Q434
465 430 618Q391 622 361 600T318 543Z" />
<glyph unicode="&#xa3;" glyph-name="sterling" horiz-adv-x="1271" d="M84 674Q88 723 128 741T213 765T264 782Q268 792 255 861T226 1013T207 1128Q201 1321 335 1417T662 1511Q797 1509 883 1459T1057 1305Q1159 1188 1151 1126Q1145 1085 1094 1057T995 1034Q964
1040 938 1073T863 1166T748 1276Q695 1315 597 1304T473 1249Q442 1179 465 998T514 791Q520 785 604 794T769 791T858 723Q868 625 764 596Q748 592 695 588T596 575T537 547Q519 522 513 489T509 397T510 315Q547 303 604 294T686 274Q743 247 786 207T866 140T971
109Q983 109 1055 119T1147 117Q1163 113 1181 83T1198 18Q1194 -25 1157 -55T1087 -94Q884 -147 752 -59Q729 -45 683 -8T597 55T526 88Q465 102 375 69T252 35Q207 35 164 65T119 133Q119 170 175 228T246 322Q264 365 271 441T270 530Q260 550 209 558T147 573Q122
585 102 616T84 674Z" />
<glyph unicode="&#xa5;" glyph-name="yen" horiz-adv-x="1271" d="M84 600Q76 698 111 737Q138 768 185 775T307 774T395 766Q375 805 301 976T176 1221Q172 1231 159 1252T138 1287T125 1321T119 1366Q123 1425 173 1469T283 1493Q320 1481 373 1364Q389 1329
419 1271T473 1163L522 1065Q579 956 602 956Q614 956 632 970T673 1011T714 1060T752 1110T774 1139Q801 1172 851 1238T938 1348T1020 1427Q1049 1452 1089 1461T1168 1451T1212 1376Q1224 1290 1053 1133Q879 955 766 784Q784 759 849 765T965 778T1042 741Q1060
690 1040 642T981 578Q961 570 882 564T751 541T705 487Q709 456 777 453T916 443T997 403Q1015 358 1004 305T950 233Q934 227 809 230T680 219Q678 217 675 138T647 25Q624 -10 528 -2Q497 2 482 24T465 72T460 146T453 225Q424 254 357 251T242 241T160 274Q135
323 146 364T188 428Q204 440 279 443T415 458T479 510Q481 547 418 554T285 551Q228 539 170 547T84 600Z" />
<glyph unicode="&#xa8;" glyph-name="dieresis" horiz-adv-x="745" d="M113 1274Q119 1321 151 1352T227 1393Q315 1409 328 1327Q340 1251 287 1188Q248 1143 199 1149Q154 1153 131 1187T113 1274ZM457 1133T446 1211T485 1348Q536 1403 600 1364Q639 1339 651
1286T633 1186T532 1137Q457 1133 446 1211Z" />
<glyph unicode="&#xa9;" glyph-name="copyright" horiz-adv-x="1644" d="M106 590Q100 709 111 821T164 1056T273 1272T463 1437T741 1532Q880 1552 1025 1501T1284 1353T1471 1123T1552 856Q1568 510 1381 260T897 -16Q702 -34 528 30T235 240T106 590ZM362 516Q389
434 470 362T651 252T858 210T1038 258Q1200 364 1266 571T1247 999Q1171 1169 952 1247T578 1233Q424 1139 365 919T362 516ZM504 635T507 731T559 903Q594 958 677 999T840 1047Q906 1053 964 1036T1030 975Q1040 924 1018 886T963 840Q932 834 877 829T793 813T750
772Q736 729 746 689T780 633Q811 613 926 613T1053 575Q1067 524 1034 470T946 403Q901 393 798 414T651 453Q583 480 544 557Z" />
<glyph unicode="&#xaa;" glyph-name="ordfeminine" horiz-adv-x="892" d="M56 369Q56 463 137 545Q194 602 295 635Q334 647 407 654T535 669T604 694Q621 722 622 753Q622 780 608 809Q579 870 539 877Q459 865 359 814Q264 766 226 766Q224 766 223 766Q178
782 168 842Q167 850 167 857Q167 902 199 930Q236 963 301 991Q414 1048 493 1070Q533 1081 576 1081Q617 1081 659 1071Q714 1051 760 986T819 840Q825 809 826 772Q827 754 827 738T826 708Q825 680 821 637T814 575T804 510T795 457Q750 217 719 115Q707 78
671 38T602 -6Q593 -7 581 -8Q559 -8 526 -3Q475 4 449 16Q373 45 333 63T241 117T145 197Q67 264 61 319Q56 344 56 369ZM268 412Q270 273 520 236Q590 254 590 467Q575 479 506 479Q480 479 446 477Q311 471 268 412Z" />
<glyph unicode="&#xab;" glyph-name="guillemotleft" horiz-adv-x="1116" d="M80 500Q68 586 274 729Q395 813 496 864Q521 880 564 877T621 848Q656 772 590 725Q567 707 508 669T401 596T338 537Q356 512 377 495T432 457T481 424Q569 365 584 319Q602 262 559
220T444 184Q432 184 409 197T361 228T332 248Q246 305 166 379T80 500ZM537 537Q539 560 571 593T633 643Q770 721 922 780Q953 790 991 768T1034 719Q1042 672 980 628T851 554T784 516Q784 512 844 483T968 412T1036 338Q1042 295 1010 262T922 236Q891 238
829 270Q827 270 794 290T741 323T684 360T626 404T580 448T545 496T537 537Z" />
<glyph unicode="&#xad;" glyph-name="uni00AD" horiz-adv-x="1067" d="M55 557Q55 645 170 657Q211 663 530 664Q557 664 654 667T811 667T907 653Q960 637 984 579T983 461Q975 443 948 430T870 410T787 401T688 398T608 397Q205 385 131 414Q94 426 74 467T55 557Z" />
<glyph unicode="&#xae;" glyph-name="registered" horiz-adv-x="1705" d="M102 782Q186 1530 887 1522Q1080 1520 1257 1389T1534 1057T1618 657Q1600 460 1544 329T1384 122T1144 19T815 -6Q467 0 265 211T102 782ZM346 575Q377 456 458 371T639 250T853 202T1063
213Q1266 250 1335 461Q1403 666 1317 903Q1227 1143 1032 1241Q880 1319 696 1280Q577 1255 483 1138T350 864T346 575ZM539 541T542 571T547 624T554 680T561 727Q584 907 606 961Q647 1059 754 1085Q799 1095 849 1099T952 1097T1045 1059T1094 977Q1102 920
1091 875T1059 809T1021 773T1004 754Q1020 709 1100 627T1196 498Q1184 449 1138 431T1047 419T979 446Q959 464 927 521T862 615T795 651Q768 649 757 618T740 535T727 463Q717 438 684 434T612 436Q589 436 574 447T553 479T543 520ZM770 844Q795 828 856 849T920
899Q920 938 884 948T811 939T774 887Q770 858 770 844Z" />
<glyph unicode="&#xb0;" glyph-name="degree" horiz-adv-x="837" d="M88 1014Q90 1057 117 1115T180 1217Q342 1414 518 1403Q643 1397 717 1305T782 1098Q778 1045 728 960T635 836Q565 773 467 754T266 774Q200 801 141 866T88 1014ZM330 1073Q332 1020 386
987T496 963T563 1026Q577 1100 527 1150T416 1186Q379 1178 354 1145T330 1073Z" />
<glyph unicode="&#xb2;" glyph-name="uni00B2" horiz-adv-x="958" d="M33 946Q35 1007 136 1108T313 1251Q362 1294 455 1308T639 1294T756 1186Q781 1045 737 916T600 631Q594 621 519 502T420 309Q463 295 659 315T887 295Q918 256 898 178T825 84Q678 61 264
72Q205 74 163 94T119 147Q117 182 131 226T163 300T211 371T246 424Q279 479 327 551T410 680T479 809Q485 823 502 853T530 904T551 954T561 1011T549 1067Q541 1083 532 1093T510 1106T486 1107T458 1098T430 1083T402 1062T375 1041T351 1019T330 1001Q310
985 272 940T200 869T131 840Q82 838 57 868T33 946Z" />
<glyph unicode="&#xb3;" glyph-name="uni00B3" horiz-adv-x="989" d="M49 1102T46 1117T53 1149T70 1174T94 1196T121 1215T149 1233T176 1249Q321 1329 530 1354Q643 1368 771 1307T909 1145Q934 1061 840 948T690 815Q710 807 740 793T826 730T897 631Q934 504
889 392T766 201Q713 148 624 101T444 41Q129 -14 113 123Q109 166 131 201T193 250H242H294Q307 250 341 251T392 256T438 266T487 281T533 305T582 338Q711 447 692 553Q682 614 619 641T485 669T356 690T295 762Q293 789 298 810T308 844T332 871T360 890T400
909T444 930Q682 1049 670 1114Q660 1161 570 1164T444 1147Q403 1135 314 1082T199 1018Q144 1008 101 1026T49 1077Q49 1102 46 1117Z" />
<glyph unicode="&#xb4;" glyph-name="acute" horiz-adv-x="745" d="M115 1112Q103 1151 121 1185T182 1243T268 1286T367 1325T446 1356Q589 1417 631 1423Q719 1437 736 1369T688 1243Q641 1210 585 1185T434 1128T309 1083Q303 1081 276 1070T237 1055T202 1048T166
1049T139 1070T115 1112Z" />
<glyph unicode="&#xb8;" glyph-name="cedilla" horiz-adv-x="681" d="M76 -475Q72 -434 98 -402T162 -354Q195 -344 256 -345T348 -338Q405 -324 431 -272T416 -190Q383 -176 356 -178T281 -187T217 -195Q156 -193 146 -145T152 -27Q154 -17 156 6T159 38T163
66T168 95T173 119T179 143T187 163T198 181T209 195Q244 226 287 226T346 201Q358 197 353 133T352 43Q620 31 633 -223Q637 -313 568 -406T416 -535Q373 -553 294 -563T162 -565Q117 -559 100 -537T76 -475Z" />
<glyph unicode="&#xb9;" glyph-name="uni00B9" horiz-adv-x="587" d="M104 94T101 115T103 178T112 233T121 287Q146 424 165 669T193 979Q195 1002 198 1047T203 1122T212 1188T234 1245T274 1278Q309 1298 367 1287T446 1227Q454 1184 450 1155T432 1063T414
973Q402 881 386 673T358 385Q354 362 352 249T332 96Q314 59 265 29T176 4Q151 8 134 22T111 65Z" />
<glyph unicode="&#xba;" glyph-name="ordmasculine" horiz-adv-x="956" d="M50 505Q50 514 50 523Q55 671 127 776Q131 782 141 798T155 819T166 835T177 852T188 866T203 883T219 898T239 915T262 934Q340 993 410 1004Q465 1014 515 1013Q662 1013 765 928Q903
813 909 610Q913 584 913 559Q913 469 867 382Q809 270 702 193Q588 118 459 118Q433 118 406 121Q330 129 250 169T123 258Q50 368 50 505ZM269 515Q269 494 272 473Q284 393 354 347Q399 317 456 317Q486 317 520 326Q571 340 624 394T690 514Q697 548 697 580Q697
668 643 738Q582 816 498 817Q480 817 461 813Q379 799 317 685Q268 595 269 515Z" />
<glyph unicode="&#xbb;" glyph-name="guillemotright" horiz-adv-x="1241" d="M82 737Q84 782 131 819T219 856Q270 848 325 818T443 744T532 686Q622 629 645 588Q672 539 647 477Q600 401 472 327T223 211Q192 213 168 237T137 289Q125 340 167 382T275 462T360
524Q344 551 212 626T82 737ZM578 782Q566 811 596 872T682 926Q717 922 822 875T993 782Q999 778 1030 760T1080 728T1124 697T1163 663T1180 633Q1188 582 1139 514Q959 283 768 156Q721 131 677 147T623 203Q617 236 629 266T654 312T702 356T739 387Q886 528
885 555Q885 567 740 651T578 782Z" />
<glyph unicode="&#xbf;" glyph-name="questiondown" horiz-adv-x="958" d="M29 389Q37 500 109 579T300 733T457 848Q463 877 452 945T447 1060T502 1118Q658 1157 674 1053Q709 834 702 772Q698 754 690 740T666 712T639 691T602 671T565 651Q536 631 475 596T377
539T302 474T250 383Q248 326 289 288T381 246Q463 240 549 317T674 467Q684 485 693 524T717 585T766 616Q811 624 861 596T920 532Q936 462 827 299Q745 174 581 104T256 96Q156 135 90 209T29 389ZM446 1427Q487 1482 572 1461T666 1380Q676 1302 590 1278Q506
1255 454 1309T446 1427Z" />
<glyph unicode="&#xc0;" glyph-name="Agrave" horiz-adv-x="999" d="M25 63Q23 81 30 110T53 186T76 250Q185 578 393 1106Q405 1137 430 1216T472 1338T527 1421T616 1466Q663 1470 689 1448T720 1401T731 1307Q733 1282 735 1270Q755 1090 814 805T891 416Q899
367 924 247T958 82Q956 39 907 10T815 -18Q762 -12 739 78T699 283T655 440Q641 438 567 430T444 413T360 389Q340 315 295 201T213 29Q164 -18 98 -1T25 63ZM195 1870Q199 1958 297 1972Q324 1974 344 1966T394 1937T440 1907Q465 1893 518 1861T616 1803T698
1757Q706 1753 721 1745T743 1733T762 1722T780 1709T793 1697T806 1683T813 1667Q829 1612 802 1560T743 1499Q735 1491 713 1497T682 1503T653 1515T626 1532T602 1550T578 1567Q519 1608 427 1660T291 1739Q256 1762 242 1773T210 1810T195 1870ZM438 612Q473
602 536 613T621 643Q623 709 604 822T563 969H545Q518 918 482 801T438 612Z" />
<glyph unicode="&#xc1;" glyph-name="Aacute" horiz-adv-x="999" d="M25 63Q23 81 30 110T53 186T76 250Q185 578 393 1106Q405 1137 430 1216T472 1338T527 1421T616 1466Q663 1470 689 1448T720 1401T731 1307Q733 1282 735 1270Q755 1090 814 805T891 416Q899
367 924 247T958 82Q956 39 907 10T815 -18Q762 -12 739 78T699 283T655 440Q641 438 567 430T444 413T360 389Q340 315 295 201T213 29Q164 -18 98 -1T25 63ZM264 1554Q252 1593 270 1627T332 1685T418 1728T517 1767T596 1798Q739 1859 780 1866Q868 1880 885
1812T838 1686Q791 1653 735 1628T584 1570T459 1526Q453 1524 425 1513T386 1497T352 1490T316 1492T288 1512T264 1554ZM438 612Q473 602 536 613T621 643Q623 709 604 822T563 969H545Q518 918 482 801T438 612Z" />
<glyph unicode="&#xc2;" glyph-name="Acircumflex" horiz-adv-x="999" d="M25 63Q23 81 30 110T53 186T76 250Q185 578 393 1106Q405 1137 430 1216T472 1338T527 1421T616 1466Q663 1470 689 1448T720 1401T731 1307Q733 1282 735 1270Q755 1090 814 805T891
416Q899 367 924 247T958 82Q956 39 907 10T815 -18Q762 -12 739 78T699 283T655 440Q641 438 567 430T444 413T360 389Q340 315 295 201T213 29Q164 -18 98 -1T25 63ZM281 1534Q261 1561 281 1627T326 1733Q373 1809 454 1884T580 1956Q678 1948 823 1817Q946
1708 963 1624Q971 1573 934 1531T844 1493Q815 1495 791 1511T755 1541T715 1589Q711 1595 700 1608T681 1631T663 1652T643 1673T626 1689T608 1702T594 1706Q563 1706 512 1650T436 1552Q405 1501 359 1498T281 1534ZM438 612Q473 602 536 613T621 643Q623 709
604 822T563 969H545Q518 918 482 801T438 612Z" />
<glyph unicode="&#xc3;" glyph-name="Atilde" horiz-adv-x="999" d="M25 63Q23 81 30 110T53 186T76 250Q185 578 393 1106Q405 1137 430 1216T472 1338T527 1421T616 1466Q663 1470 689 1448T720 1401T731 1307Q733 1282 735 1270Q755 1090 814 805T891 416Q899
367 924 247T958 82Q956 39 907 10T815 -18Q762 -12 739 78T699 283T655 440Q641 438 567 430T444 413T360 389Q340 315 295 201T213 29Q164 -18 98 -1T25 63ZM274 1571Q272 1587 275 1603T284 1629T298 1653T309 1673Q334 1716 381 1763Q404 1788 439 1805T521
1822T602 1790Q612 1780 643 1722T702 1661Q725 1661 747 1685T784 1737T822 1781T874 1786Q915 1766 908 1723T878 1639T825 1575Q690 1458 582 1550Q566 1562 545 1605T504 1653Q486 1655 466 1642T435 1615T408 1578T389 1550Q356 1515 318 1523T274 1571ZM438
612Q473 602 536 613T621 643Q623 709 604 822T563 969H545Q518 918 482 801T438 612Z" />
<glyph unicode="&#xc4;" glyph-name="Adieresis" horiz-adv-x="999" d="M25 63Q23 81 30 110T53 186T76 250Q185 578 393 1106Q405 1137 430 1216T472 1338T527 1421T616 1466Q663 1470 689 1448T720 1401T731 1307Q733 1282 735 1270Q755 1090 814 805T891 416Q899
367 924 247T958 82Q956 39 907 10T815 -18Q762 -12 739 78T699 283T655 440Q641 438 567 430T444 413T360 389Q340 315 295 201T213 29Q164 -18 98 -1T25 63ZM362 1675Q368 1722 401 1754T477 1794Q565 1810 578 1729Q590 1653 537 1589Q498 1544 449 1550Q404
1554 380 1588T362 1675ZM438 612Q473 602 536 613T621 643Q623 709 604 822T563 969H545Q518 918 482 801T438 612ZM707 1534T696 1613T735 1749Q786 1804 850 1765Q889 1740 901 1687T883 1587T782 1538Q707 1534 696 1613Z" />
<glyph unicode="&#xc5;" glyph-name="Aring" horiz-adv-x="999" d="M25 63Q23 81 30 110T53 186T76 250Q185 578 393 1106Q405 1137 430 1216T472 1338T527 1421T616 1466Q663 1470 689 1448T720 1401T731 1307Q733 1282 735 1270Q755 1090 814 805T891 416Q899
367 924 247T958 82Q956 39 907 10T815 -18Q762 -12 739 78T699 283T655 440Q641 438 567 430T444 413T360 389Q340 315 295 201T213 29Q164 -18 98 -1T25 63ZM272 1597Q274 1640 302 1698T365 1800Q527 1997 702 1987Q827 1981 901 1889T967 1681Q963 1628 913
1543T819 1419Q749 1356 651 1338T451 1358Q385 1385 326 1450T272 1597ZM438 612Q473 602 536 613T621 643Q623 709 604 822T563 969H545Q518 918 482 801T438 612ZM514 1657Q516 1604 570 1571T681 1547T748 1610Q762 1684 712 1734T600 1769Q563 1761 538 1729T514
1657Z" />
<glyph unicode="&#xc6;" glyph-name="AE" horiz-adv-x="1800" d="M68 82T73 127T102 225T168 338Q494 887 713 1317Q819 1479 930 1491Q973 1495 992 1480T1027 1439T1067 1401Q1098 1399 1128 1401T1243 1412T1362 1423Q1667 1446 1688 1358Q1715 1223 1602 1210Q1573
1206 1360 1193T1067 1151Q1061 805 1067 754Q1155 731 1268 736T1499 739T1638 713Q1669 686 1661 622T1604 543Q1547 527 1348 524T1092 500Q1069 465 1072 359T1092 221Q1108 207 1152 206T1274 213T1368 221Q1376 221 1409 223L1458 226Q1474 227 1505 226T1554
222T1594 213T1629 195T1649 166Q1663 129 1646 86T1608 37Q1495 6 1380 8Q1355 8 1199 0T945 1T848 51Q848 69 843 153T840 260Q850 465 815 494Q659 519 547 481Q506 463 436 343T356 213Q350 205 334 174T306 127T278 89T240 54T197 39Q129 33 99 57ZM655 756Q692
731 815 750Q831 797 826 883T793 1001Q785 989 761 960T726 913T699 869T672 815T655 756Z" />
<glyph unicode="&#xc7;" glyph-name="Ccedilla" horiz-adv-x="1062" d="M39 616Q39 856 72 985T211 1241Q303 1350 440 1406T735 1417Q841 1386 909 1319T938 1190Q907 1137 855 1133T747 1152T619 1184T477 1165Q276 1077 272 688Q272 522 319 423T469 268Q557
223 641 221Q676 219 734 236T838 270T928 284T995 246Q1030 191 992 132T903 49Q799 0 612 -8Q589 -10 565 -8T519 -9T478 -18T450 -42T444 -88Q450 -117 478 -131T549 -154T610 -174Q661 -203 692 -267T711 -391Q703 -434 678 -469T636 -518T578 -561Q512 -604
398 -604T272 -528Q266 -485 298 -461T371 -430T447 -411T485 -375Q481 -342 457 -328T391 -305T334 -289Q236 -248 230 -131T291 55Q234 86 176 161T84 324Q68 367 54 463T39 616Z" />
<glyph unicode="&#xc8;" glyph-name="Egrave" horiz-adv-x="919" d="M68 231Q66 294 82 512Q88 651 115 1049Q117 1131 118 1165T130 1253T162 1329Q221 1395 487 1395Q563 1395 606 1392T700 1381T777 1354T807 1307Q811 1244 795 1212T723 1178Q700 1176 637
1176Q414 1172 371 1143Q346 1127 338 1042Q338 1038 333 1004T326 948T323 894T327 841T344 807Q364 789 403 788Q434 788 503 803T604 819Q670 819 688 758Q706 652 602 618Q575 614 512 606Q348 588 313 561Q286 532 287 424Q287 332 291 297Q291 293 292 286T293
276L295 274Q391 270 557 287Q573 289 634 301T731 317T809 315Q838 307 854 262T854 166Q842 129 818 107T750 75T678 64T594 59Q465 59 227 43Q123 35 98 71T68 231ZM121 1833Q125 1921 223 1935Q250 1937 270 1929T320 1900T367 1870Q392 1856 445 1824T543
1766T625 1720Q633 1716 648 1708T670 1696T688 1685T706 1672T720 1660T732 1646T739 1630Q755 1575 728 1523T670 1462Q662 1454 639 1460T608 1466T579 1478T552 1495T528 1513T504 1530Q445 1571 353 1623T217 1702Q182 1725 168 1736T137 1773T121 1833Z"
/>
<glyph unicode="&#xc9;" glyph-name="Eacute" horiz-adv-x="919" d="M68 231Q66 294 82 512Q88 651 115 1049Q117 1131 118 1165T130 1253T162 1329Q221 1395 487 1395Q563 1395 606 1392T700 1381T777 1354T807 1307Q811 1244 795 1212T723 1178Q700 1176 637
1176Q414 1172 371 1143Q346 1127 338 1042Q338 1038 333 1004T326 948T323 894T327 841T344 807Q364 789 403 788Q434 788 503 803T604 819Q670 819 688 758Q706 652 602 618Q575 614 512 606Q348 588 313 561Q286 532 287 424Q287 332 291 297Q291 293 292 286T293
276L295 274Q391 270 557 287Q573 289 634 301T731 317T809 315Q838 307 854 262T854 166Q842 129 818 107T750 75T678 64T594 59Q465 59 227 43Q123 35 98 71T68 231ZM215 1526Q203 1565 221 1598T283 1656T369 1699T468 1738T547 1769Q690 1830 731 1837Q819
1851 836 1783T788 1657Q741 1624 685 1599T535 1541T410 1497Q404 1495 376 1484T337 1469T303 1461T267 1463T239 1483T215 1526Z" />
<glyph unicode="&#xca;" glyph-name="Ecircumflex" horiz-adv-x="919" d="M68 231Q66 294 82 512Q88 651 115 1049Q117 1131 118 1165T130 1253T162 1329Q221 1395 487 1395Q563 1395 606 1392T700 1381T777 1354T807 1307Q811 1244 795 1212T723 1178Q700 1176
637 1176Q414 1172 371 1143Q346 1127 338 1042Q338 1038 333 1004T326 948T323 894T327 841T344 807Q364 789 403 788Q434 788 503 803T604 819Q670 819 688 758Q706 652 602 618Q575 614 512 606Q348 588 313 561Q286 532 287 424Q287 332 291 297Q291 293 292
286T293 276L295 274Q391 270 557 287Q573 289 634 301T731 317T809 315Q838 307 854 262T854 166Q842 129 818 107T750 75T678 64T594 59Q465 59 227 43Q123 35 98 71T68 231ZM129 1491Q109 1518 129 1584T174 1690Q221 1766 302 1841T428 1913Q526 1905 672 1774Q795
1665 811 1581Q819 1530 782 1488T692 1450Q663 1452 639 1468T603 1498T563 1546Q559 1552 548 1565T530 1588T511 1609T492 1630T474 1646T457 1659T442 1663Q411 1663 360 1607T285 1509Q254 1458 207 1455T129 1491Z" />
<glyph unicode="&#xcb;" glyph-name="Edieresis" horiz-adv-x="919" d="M68 231Q66 294 82 512Q88 651 115 1049Q117 1131 118 1165T130 1253T162 1329Q221 1395 487 1395Q563 1395 606 1392T700 1381T777 1354T807 1307Q811 1244 795 1212T723 1178Q700 1176
637 1176Q414 1172 371 1143Q346 1127 338 1042Q338 1038 333 1004T326 948T323 894T327 841T344 807Q364 789 403 788Q434 788 503 803T604 819Q670 819 688 758Q706 652 602 618Q575 614 512 606Q348 588 313 561Q286 532 287 424Q287 332 291 297Q291 293 292
286T293 276L295 274Q391 270 557 287Q573 289 634 301T731 317T809 315Q838 307 854 262T854 166Q842 129 818 107T750 75T678 64T594 59Q465 59 227 43Q123 35 98 71T68 231ZM178 1608Q184 1655 217 1686T293 1726Q381 1742 393 1661Q405 1585 352 1522Q313 1477
264 1483Q219 1487 196 1521T178 1608ZM522 1466T511 1545T551 1681Q602 1736 666 1698Q705 1673 717 1620T699 1520T598 1470Q522 1466 511 1545Z" />
<glyph unicode="&#xcc;" glyph-name="Igrave" horiz-adv-x="434" d="M-113 1931Q-109 2019 -10 2034Q17 2036 37 2028T87 1998T133 1968Q158 1954 211 1922T309 1864T391 1819Q399 1815 414 1807T436 1794T454 1783T473 1771T486 1758T499 1744T506 1729Q522 1674
495 1622T436 1561Q428 1553 406 1559T375 1565T346 1577T319 1593T294 1611T270 1628Q211 1669 119 1721T-16 1800Q-51 1823 -65 1834T-97 1871T-113 1931ZM72 16T65 91T68 231Q70 260 71 369T74 512Q78 594 93 792T115 1096Q135 1397 143 1417Q157 1444 196 1462T270
1483Q344 1483 360 1436Q372 1377 369 1319T353 1155T338 1020Q336 977 323 764T309 428Q309 102 281 59Q258 26 203 6T115 0Q72 16 65 91Z" />
<glyph unicode="&#xcd;" glyph-name="Iacute" horiz-adv-x="434" d="M-88 1583Q-100 1622 -82 1656T-20 1714T66 1757T165 1796T244 1827Q387 1888 428 1894Q516 1908 533 1840T485 1714Q438 1681 382 1656T232 1599T106 1554Q100 1552 73 1541T34 1526T-1 1519T-37
1521T-64 1541T-88 1583ZM72 16T65 91T68 231Q70 260 71 369T74 512Q78 594 93 792T115 1096Q135 1397 143 1417Q157 1444 196 1462T270 1483Q344 1483 360 1436Q372 1377 369 1319T353 1155T338 1020Q336 977 323 764T309 428Q309 102 281 59Q258 26 203 6T115
0Q72 16 65 91Z" />
<glyph unicode="&#xce;" glyph-name="Icircumflex" horiz-adv-x="434" d="M-45 1552Q-65 1579 -45 1645T0 1751Q47 1827 128 1902T254 1974Q352 1966 498 1835Q621 1726 637 1642Q645 1591 608 1549T518 1511Q489 1513 465 1529T429 1559T389 1608Q385 1614 374
1627T355 1649T337 1671T318 1691T300 1708T283 1720T268 1724Q237 1724 186 1668T111 1571Q80 1520 33 1517T-45 1552ZM72 16T65 91T68 231Q70 260 71 369T74 512Q78 594 93 792T115 1096Q135 1397 143 1417Q157 1444 196 1462T270 1483Q344 1483 360 1436Q372
1377 369 1319T353 1155T338 1020Q336 977 323 764T309 428Q309 102 281 59Q258 26 203 6T115 0Q72 16 65 91Z" />
<glyph unicode="&#xcf;" glyph-name="Idieresis" horiz-adv-x="434" d="M-16 1720Q-10 1767 22 1799T98 1839Q186 1855 199 1774Q211 1698 158 1634Q119 1589 70 1595Q25 1599 2 1633T-16 1720ZM72 16T65 91T68 231Q70 260 71 369T74 512Q78 594 93 792T115 1096Q135
1397 143 1417Q157 1444 196 1462T270 1483Q344 1483 360 1436Q372 1377 369 1319T353 1155T338 1020Q336 977 323 764T309 428Q309 102 281 59Q258 26 203 6T115 0Q72 16 65 91ZM328 1579T317 1658T356 1794Q407 1849 471 1810Q510 1785 522 1732T504 1632T403
1583Q328 1579 317 1658Z" />
<glyph unicode="&#xd1;" glyph-name="Ntilde" horiz-adv-x="1163" d="M70 35T66 87T75 228T90 326Q98 471 128 736T166 1155Q182 1374 211 1405Q229 1425 277 1436T367 1436Q383 1430 396 1417T422 1380T442 1339T465 1285T485 1233Q641 871 668 811Q793 530 825
483Q841 542 852 772Q856 838 861 947T870 1130Q872 1153 870 1201T870 1287T881 1350Q889 1373 914 1398T973 1430Q1063 1446 1090 1405Q1129 1356 1087 1102Q1079 1049 1061 695T1042 283V224Q1042 176 1040 155T1032 101T1014 49Q994 18 943 3T846 4Q817 16
774 106Q747 157 690 259T592 443T518 602Q510 622 476 682T413 805T369 922Q355 848 341 618T319 342Q301 76 258 33Q235 6 186 0T98 16Q70 35 66 87ZM387 1526Q385 1542 388 1558T396 1584T410 1608T422 1628Q447 1671 494 1718Q517 1743 552 1760T634 1777T715
1745Q725 1735 755 1677T815 1616Q838 1616 860 1640T897 1692T934 1736T987 1741Q1028 1721 1021 1678T991 1594T938 1530Q803 1413 694 1505Q678 1517 658 1560T616 1608Q598 1610 579 1597T548 1570T521 1533T502 1505Q469 1470 431 1478T387 1526Z" />
<glyph unicode="&#xd2;" glyph-name="Ograve" horiz-adv-x="1314" d="M70 643Q93 1044 276 1217Q450 1424 684 1425Q801 1427 912 1396T1085 1290Q1198 1181 1233 1008T1239 655Q1216 522 1194 455T1118 309Q928 0 551 -2Q315 0 178 211Q108 317 85 402T70 643ZM317
530Q325 446 402 348T551 225Q655 188 749 238T895 369Q995 521 1004 786Q1000 905 939 1015T799 1151Q699 1184 610 1178Q544 1172 480 1120T385 1008Q350 938 328 789T317 530ZM330 1868Q334 1956 432 1970Q459 1972 479 1964T529 1935T575 1905Q600 1891 653
1859T752 1801T834 1755Q842 1751 857 1743T878 1731T897 1719T915 1707T929 1695T941 1681T948 1665Q964 1610 937 1558T879 1497Q871 1489 848 1495T817 1501T788 1513T761 1530T737 1548T713 1565Q654 1606 562 1658T426 1737Q391 1760 377 1771T345 1808T330
1868Z" />
<glyph unicode="&#xd3;" glyph-name="Oacute" horiz-adv-x="1314" d="M70 643Q93 1044 276 1217Q450 1424 684 1425Q801 1427 912 1396T1085 1290Q1198 1181 1233 1008T1239 655Q1216 522 1194 455T1118 309Q928 0 551 -2Q315 0 178 211Q108 317 85 402T70 643ZM317
530Q325 446 402 348T551 225Q655 188 749 238T895 369Q995 521 1004 786Q1000 905 939 1015T799 1151Q699 1184 610 1178Q544 1172 480 1120T385 1008Q350 938 328 789T317 530ZM371 1528Q359 1567 377 1600T438 1658T524 1701T623 1740T702 1772Q845 1833 887
1839Q975 1853 992 1785T944 1659Q897 1626 841 1601T690 1543T565 1499Q559 1497 532 1486T493 1471T458 1463T422 1465T395 1485T371 1528Z" />
<glyph unicode="&#xd4;" glyph-name="Ocircumflex" horiz-adv-x="1314" d="M70 643Q93 1044 276 1217Q450 1424 684 1425Q801 1427 912 1396T1085 1290Q1198 1181 1233 1008T1239 655Q1216 522 1194 455T1118 309Q928 0 551 -2Q315 0 178 211Q108 317 85 402T70
643ZM317 530Q325 446 402 348T551 225Q655 188 749 238T895 369Q995 521 1004 786Q1000 905 939 1015T799 1151Q699 1184 610 1178Q544 1172 480 1120T385 1008Q350 938 328 789T317 530ZM334 1499Q314 1526 334 1592T379 1698Q426 1774 507 1849T633 1921Q731
1913 877 1782Q1000 1673 1016 1589Q1024 1538 987 1496T897 1458Q868 1460 844 1476T808 1506T768 1554Q764 1560 753 1573T734 1596T716 1618T697 1638T679 1655T662 1667T647 1671Q616 1671 565 1615T489 1518Q458 1467 412 1464T334 1499Z" />
<glyph unicode="&#xd5;" glyph-name="Otilde" horiz-adv-x="1314" d="M70 643Q93 1044 276 1217Q450 1424 684 1425Q801 1427 912 1396T1085 1290Q1198 1181 1233 1008T1239 655Q1216 522 1194 455T1118 309Q928 0 551 -2Q315 0 178 211Q108 317 85 402T70 643ZM317
530Q325 446 402 348T551 225Q655 188 749 238T895 369Q995 521 1004 786Q1000 905 939 1015T799 1151Q699 1184 610 1178Q544 1172 480 1120T385 1008Q350 938 328 789T317 530ZM350 1511Q348 1527 351 1544T359 1570T374 1594T385 1614Q410 1657 457 1704Q480
1729 515 1746T597 1762T678 1731Q688 1721 719 1663T778 1602Q801 1602 823 1626T860 1678T898 1722T950 1726Q991 1706 984 1663T954 1580T901 1516Q766 1399 657 1491Q641 1503 621 1546T580 1593Q562 1595 542 1582T511 1556T484 1519T465 1491Q432 1456 394
1464T350 1511Z" />
<glyph unicode="&#xd6;" glyph-name="Odieresis" horiz-adv-x="1314" d="M70 643Q93 1044 276 1217Q450 1424 684 1425Q801 1427 912 1396T1085 1290Q1198 1181 1233 1008T1239 655Q1216 522 1194 455T1118 309Q928 0 551 -2Q315 0 178 211Q108 317 85 402T70
643ZM317 530Q325 446 402 348T551 225Q655 188 749 238T895 369Q995 521 1004 786Q1000 905 939 1015T799 1151Q699 1184 610 1178Q544 1172 480 1120T385 1008Q350 938 328 789T317 530ZM477 1638Q483 1685 516 1717T592 1757Q680 1773 692 1692Q704 1616 651
1552Q612 1507 563 1513Q518 1517 495 1551T477 1638ZM821 1497T810 1576T850 1712Q901 1767 965 1729Q1004 1704 1016 1651T998 1550T897 1501Q821 1497 810 1576Z" />
<glyph unicode="&#xd8;" glyph-name="Oslash" horiz-adv-x="1366" d="M84 172Q84 213 111 247T167 305T197 342Q199 369 180 412T156 467Q105 651 160 849T334 1145Q426 1223 521 1253T772 1268Q801 1266 844 1255T918 1235T958 1229Q964 1231 1013 1281T1094
1348Q1127 1368 1192 1354Q1266 1334 1266 1270Q1266 1247 1221 1186T1176 1112Q1176 1089 1220 1020T1278 895Q1348 621 1253 419T942 145Q745 82 500 127Q490 129 448 141T385 152Q348 148 293 102T219 57Q166 63 124 97T84 172ZM350 725Q336 619 356 535Q366
500 381 506Q422 535 592 732T821 1016Q782 1055 686 1060T528 1032Q456 993 410 909T350 725ZM545 336Q570 293 643 289Q827 275 955 364T1102 616Q1106 667 1090 743T1050 868T1016 907Q930 819 780 635T545 336Z" />
<glyph unicode="&#xd9;" glyph-name="Ugrave" horiz-adv-x="1105" d="M74 492Q45 760 92 1102Q94 1120 99 1162T107 1220T117 1268T131 1315T151 1350T181 1381T223 1401Q309 1426 344 1389Q356 1375 357 1340T354 1271T342 1190T332 1124Q320 983 315 922T311
751T328 547Q353 385 401 313Q426 274 480 245T602 229Q661 241 699 335T748 534T762 756Q762 801 766 854Q766 920 774 1096Q774 1100 775 1163T779 1268T791 1329Q805 1366 844 1391T924 1423Q983 1433 1009 1403T1032 1318T1022 1198Q1020 1190 1020 1186Q1008
1088 1000 833T969 463Q916 191 762 80Q694 31 598 12T395 20Q317 45 240 114T131 260Q108 315 92 379Q84 418 74 492ZM209 1825Q213 1913 311 1927Q338 1929 358 1921T408 1892T455 1862Q480 1848 533 1816T631 1758T713 1712Q721 1708 736 1700T758 1688T776
1676T794 1664T808 1652T820 1638T827 1622Q843 1567 816 1515T758 1454Q750 1446 728 1452T697 1458T667 1470T640 1487T616 1505T592 1522Q533 1563 441 1615T305 1694Q270 1717 256 1728T225 1765T209 1825Z" />
<glyph unicode="&#xda;" glyph-name="Uacute" horiz-adv-x="1105" d="M74 492Q45 760 92 1102Q94 1120 99 1162T107 1220T117 1268T131 1315T151 1350T181 1381T223 1401Q309 1426 344 1389Q356 1375 357 1340T354 1271T342 1190T332 1124Q320 983 315 922T311
751T328 547Q353 385 401 313Q426 274 480 245T602 229Q661 241 699 335T748 534T762 756Q762 801 766 854Q766 920 774 1096Q774 1100 775 1163T779 1268T791 1329Q805 1366 844 1391T924 1423Q983 1433 1009 1403T1032 1318T1022 1198Q1020 1190 1020 1186Q1008
1088 1000 833T969 463Q916 191 762 80Q694 31 598 12T395 20Q317 45 240 114T131 260Q108 315 92 379Q84 418 74 492ZM420 1559Q408 1598 426 1631T487 1689T573 1732T672 1771T752 1802Q895 1863 936 1870Q1024 1884 1041 1816T993 1690Q946 1657 890 1632T740
1574T614 1530Q608 1528 581 1517T542 1501T507 1494T471 1496T444 1516T420 1559Z" />
<glyph unicode="&#xdb;" glyph-name="Ucircumflex" horiz-adv-x="1105" d="M74 492Q45 760 92 1102Q94 1120 99 1162T107 1220T117 1268T131 1315T151 1350T181 1381T223 1401Q309 1426 344 1389Q356 1375 357 1340T354 1271T342 1190T332 1124Q320 983 315 922T311
751T328 547Q353 385 401 313Q426 274 480 245T602 229Q661 241 699 335T748 534T762 756Q762 801 766 854Q766 920 774 1096Q774 1100 775 1163T779 1268T791 1329Q805 1366 844 1391T924 1423Q983 1433 1009 1403T1032 1318T1022 1198Q1020 1190 1020 1186Q1008
1088 1000 833T969 463Q916 191 762 80Q694 31 598 12T395 20Q317 45 240 114T131 260Q108 315 92 379Q84 418 74 492ZM289 1513Q269 1540 289 1606T334 1712Q381 1788 462 1863T588 1935Q686 1927 831 1796Q954 1687 971 1604Q979 1553 942 1511T852 1473Q823
1475 799 1491T763 1520T723 1569Q719 1575 708 1588T689 1611T671 1632T651 1653T634 1669T617 1681T602 1686Q571 1686 520 1630T444 1532Q413 1481 367 1478T289 1513Z" />
<glyph unicode="&#xdc;" glyph-name="Udieresis" horiz-adv-x="1105" d="M74 492Q45 760 92 1102Q94 1120 99 1162T107 1220T117 1268T131 1315T151 1350T181 1381T223 1401Q309 1426 344 1389Q356 1375 357 1340T354 1271T342 1190T332 1124Q320 983 315 922T311
751T328 547Q353 385 401 313Q426 274 480 245T602 229Q661 241 699 335T748 534T762 756Q762 801 766 854Q766 920 774 1096Q774 1100 775 1163T779 1268T791 1329Q805 1366 844 1391T924 1423Q983 1433 1009 1403T1032 1318T1022 1198Q1020 1190 1020 1186Q1008
1088 1000 833T969 463Q916 191 762 80Q694 31 598 12T395 20Q317 45 240 114T131 260Q108 315 92 379Q84 418 74 492ZM360 1626Q366 1673 399 1705T475 1745Q563 1761 575 1679Q587 1603 535 1540Q496 1495 446 1501Q401 1505 378 1539T360 1626ZM705 1485T694
1563T733 1700Q784 1755 848 1716Q887 1691 899 1638T881 1538T780 1489Q705 1485 694 1563Z" />
<glyph unicode="&#xdd;" glyph-name="Yacute" horiz-adv-x="1193" d="M31 1309Q31 1377 105 1435T242 1452Q252 1446 264 1424T284 1381T305 1332T319 1296Q364 1208 397 1135Q413 1098 441 1024T492 904T551 823Q576 835 595 858T635 917T666 967Q803 1164 874
1260Q915 1311 936 1343Q997 1435 999 1438Q1017 1452 1049 1457T1115 1446T1159 1393Q1167 1366 1155 1333T1128 1279T1086 1228T1057 1194Q1020 1147 957 1069T851 935T758 801Q727 754 694 694Q639 610 633 580Q623 537 616 393Q614 334 598 178Q586 55 582
39Q570 8 530 -16T442 -37Q407 -33 389 -2T370 78T372 173T383 274T391 352Q401 536 369 627Q361 650 334 692T297 758Q279 811 226 902T156 1028Q138 1067 88 1165Q82 1175 69 1200T49 1238T37 1272T31 1309ZM432 1552Q420 1591 438 1625T500 1683T586 1726T685
1765T764 1796Q907 1857 948 1864Q1036 1878 1053 1810T1006 1683Q959 1650 903 1625T752 1568T627 1524Q621 1522 593 1511T554 1495T520 1488T484 1490T456 1510T432 1552Z" />
<glyph unicode="&#xdf;" glyph-name="germandbls" horiz-adv-x="1148" d="M125 553Q94 786 125 988T264 1333T549 1495Q766 1515 963 1303Q1006 1256 1027 1228T1073 1153T1095 1056T1063 948Q1043 909 995 849T905 752Q792 656 791 602Q789 586 806 566T862 508T915
457Q1015 353 1020 248Q1024 129 889 33Q803 -28 741 -20Q678 -10 657 54T688 164Q692 168 714 176T755 197T776 229Q780 266 723 327T606 460T545 588Q547 651 593 731T719 874Q809 948 819 1014Q827 1082 733 1167T569 1253Q520 1253 481 1206T421 1086T387 936T373
791Q371 678 392 427T401 39Q385 4 351 -25T273 -66T188 -45Q180 -39 174 -28T166 2T163 34T161 75T160 119Q154 311 125 553Z" />
<glyph unicode="&#xe0;" glyph-name="agrave" horiz-adv-x="892" d="M61 319Q34 442 137 545Q194 602 295 635Q334 647 407 654T535 669T604 694Q637 747 609 808T539 877Q459 865 360 815T223 766Q178 782 168 842Q162 897 199 930T301 991Q414 1048 492 1070T659
1071Q714 1051 760 986T819 840Q825 809 826 772T826 708T821 637T814 575T804 510T795 457Q750 217 719 115Q707 78 671 38T602 -6Q577 -10 526 -3T449 16Q373 45 333 63T241 117T145 197Q67 264 61 319ZM145 1491Q149 1579 248 1593Q275 1595 295 1587T345 1558T391
1528Q416 1514 469 1482T567 1424T649 1378Q657 1374 672 1366T694 1354T712 1343T731 1330T744 1318T757 1304T764 1288Q780 1233 753 1181T694 1120Q686 1112 664 1118T633 1124T604 1136T577 1153T552 1171T528 1188Q469 1229 377 1281T242 1360Q207 1383 193
1394T161 1431T145 1491ZM268 412Q270 273 520 236Q590 254 590 467Q570 483 446 477Q311 471 268 412Z" />
<glyph unicode="&#xe1;" glyph-name="aacute" horiz-adv-x="892" d="M61 319Q34 442 137 545Q194 602 295 635Q334 647 407 654T535 669T604 694Q637 747 609 808T539 877Q459 865 360 815T223 766Q178 782 168 842Q162 897 199 930T301 991Q414 1048 492 1070T659
1071Q714 1051 760 986T819 840Q825 809 826 772T826 708T821 637T814 575T804 510T795 457Q750 217 719 115Q707 78 671 38T602 -6Q577 -10 526 -3T449 16Q373 45 333 63T241 117T145 197Q67 264 61 319ZM240 1155Q228 1194 246 1228T307 1286T393 1329T492 1368T571
1399Q714 1460 756 1466Q844 1480 861 1412T813 1286Q766 1253 710 1228T559 1171T434 1126Q428 1124 401 1113T362 1098T327 1091T291 1092T264 1113T240 1155ZM268 412Q270 273 520 236Q590 254 590 467Q570 483 446 477Q311 471 268 412Z" />
<glyph unicode="&#xe2;" glyph-name="acircumflex" horiz-adv-x="892" d="M61 319Q34 442 137 545Q194 602 295 635Q334 647 407 654T535 669T604 694Q637 747 609 808T539 877Q459 865 360 815T223 766Q178 782 168 842Q162 897 199 930T301 991Q414 1048 492
1070T659 1071Q714 1051 760 986T819 840Q825 809 826 772T826 708T821 637T814 575T804 510T795 457Q750 217 719 115Q707 78 671 38T602 -6Q577 -10 526 -3T449 16Q373 45 333 63T241 117T145 197Q67 264 61 319ZM213 1106Q193 1133 213 1199T258 1305Q305 1381
386 1456T512 1528Q610 1520 756 1389Q879 1280 895 1196Q903 1145 866 1103T776 1065Q747 1067 723 1083T687 1113T647 1161Q643 1167 632 1180T614 1203T595 1224T576 1245T558 1261T541 1274T526 1278Q495 1278 444 1222T369 1124Q338 1073 291 1070T213 1106ZM268
412Q270 273 520 236Q590 254 590 467Q570 483 446 477Q311 471 268 412Z" />
<glyph unicode="&#xe3;" glyph-name="atilde" horiz-adv-x="892" d="M61 319Q34 442 137 545Q194 602 295 635Q334 647 407 654T535 669T604 694Q637 747 609 808T539 877Q459 865 360 815T223 766Q178 782 168 842Q162 897 199 930T301 991Q414 1048 492 1070T659
1071Q714 1051 760 986T819 840Q825 809 826 772T826 708T821 637T814 575T804 510T795 457Q750 217 719 115Q707 78 671 38T602 -6Q577 -10 526 -3T449 16Q373 45 333 63T241 117T145 197Q67 264 61 319ZM184 1210Q182 1226 185 1243T193 1269T208 1293T219 1313Q244
1356 291 1403Q314 1428 349 1445T431 1461T512 1430Q522 1420 553 1362T612 1300Q635 1300 657 1325T694 1377T732 1421T784 1425Q825 1405 818 1362T788 1279T735 1214Q600 1097 492 1190Q476 1202 455 1245T414 1292Q396 1294 376 1281T345 1255T318 1218T299
1190Q266 1155 228 1163T184 1210ZM268 412Q270 273 520 236Q590 254 590 467Q570 483 446 477Q311 471 268 412Z" />
<glyph unicode="&#xe4;" glyph-name="adieresis" horiz-adv-x="892" d="M61 319Q34 442 137 545Q194 602 295 635Q334 647 407 654T535 669T604 694Q637 747 609 808T539 877Q459 865 360 815T223 766Q178 782 168 842Q162 897 199 930T301 991Q414 1048 492 1070T659
1071Q714 1051 760 986T819 840Q825 809 826 772T826 708T821 637T814 575T804 510T795 457Q750 217 719 115Q707 78 671 38T602 -6Q577 -10 526 -3T449 16Q373 45 333 63T241 117T145 197Q67 264 61 319ZM268 412Q270 273 520 236Q590 254 590 467Q570 483 446
477Q311 471 268 412ZM291 1305Q297 1352 329 1383T406 1423Q494 1439 506 1358Q518 1282 465 1219Q426 1174 377 1180Q332 1184 309 1218T291 1305ZM635 1163T624 1242T664 1378Q715 1433 778 1395Q817 1370 829 1317T811 1217T711 1167Q635 1163 624 1242Z" />
<glyph unicode="&#xe5;" glyph-name="aring" horiz-adv-x="892" d="M61 319Q34 442 137 545Q194 602 295 635Q334 647 407 654T535 669T604 694Q637 747 609 808T539 877Q459 865 360 815T223 766Q178 782 168 842Q162 897 199 930T301 991Q414 1048 492 1070T659
1071Q714 1051 760 986T819 840Q825 809 826 772T826 708T821 637T814 575T804 510T795 457Q750 217 719 115Q707 78 671 38T602 -6Q577 -10 526 -3T449 16Q373 45 333 63T241 117T145 197Q67 264 61 319ZM170 1208Q172 1251 199 1309T262 1411Q424 1608 600 1597Q725
1591 798 1499T864 1292Q860 1239 810 1154T717 1030Q647 967 549 949T348 969Q282 996 223 1061T170 1208ZM268 412Q270 273 520 236Q590 254 590 467Q570 483 446 477Q311 471 268 412ZM412 1268Q414 1215 468 1182T578 1158T645 1221Q659 1295 609 1345T498
1380Q461 1372 436 1340T412 1268Z" />
<glyph unicode="&#xe6;" glyph-name="ae" horiz-adv-x="1302" d="M98 147Q47 284 130 418T322 606Q349 618 417 629T516 659Q559 686 576 755T573 891Q507 897 471 879T381 805Q371 795 339 752T283 693T219 676Q72 682 186 836Q219 883 264 924Q420 1063 541
1077Q568 1083 617 1081T682 1067Q711 1047 741 1006T797 958Q826 950 888 966T1001 979Q1124 971 1196 873T1212 643Q1181 565 1097 512T895 438Q889 438 864 436T821 432T783 424T752 410Q744 404 739 395T730 373T725 349T723 321V292V259V229Q819 174 958 252Q978
262 1009 290T1060 337T1117 370T1182 367Q1215 353 1224 314T1210 227Q1167 129 1039 72T741 6Q721 4 645 21T557 39Q530 41 479 26T408 10Q299 0 213 34T98 147ZM299 260Q305 213 365 197T471 207Q508 227 524 303T535 438Q457 467 373 406T299 260ZM774 643Q772
614 785 603T838 595T946 625Q979 637 1010 673T1038 737Q1026 798 920 784Q869 776 824 740T774 643Z" />
<glyph unicode="&#xe7;" glyph-name="ccedilla" horiz-adv-x="931" d="M104 279Q77 396 128 497T262 668Q409 797 627 782Q793 770 799 719Q805 680 782 638T719 588Q688 580 604 578T481 565Q424 553 377 511T326 410T371 303T481 242Q499 234 531 237T576 242T621
252T672 264Q805 289 836 223Q854 174 844 138T815 90Q749 47 664 35T516 16T430 -23Q448 -48 507 -78T595 -149T606 -264Q588 -342 464 -383T279 -412Q191 -394 195 -324Q197 -293 229 -277T300 -256T368 -239T399 -199Q399 -170 311 -129T221 -49Q219 -12 239
15T254 61Q254 63 222 89T154 165T104 279Z" />
<glyph unicode="&#xe8;" glyph-name="egrave" horiz-adv-x="917" d="M84 1397Q88 1485 186 1499Q213 1501 233 1493T283 1464T330 1434Q355 1420 408 1388T506 1330T588 1284Q596 1280 611 1272T633 1260T651 1248T670 1236T683 1224T695 1210T702 1194Q718 1139
691 1087T633 1026Q625 1018 603 1024T572 1030T542 1042T515 1059T491 1077T467 1094Q408 1135 316 1187T180 1266Q145 1289 131 1300T100 1337T84 1397ZM92 362Q37 614 141 758Q178 828 240 882T365 954Q515 1009 635 959T821 758Q833 738 848 689T864 614Q868
571 842 528T774 471Q743 461 669 429T541 383Q398 342 344 324Q356 277 392 257T504 219Q549 209 593 219T662 243T721 264T776 254Q809 217 807 177T776 115Q696 58 571 43T367 68Q244 119 189 177T92 362ZM307 682T295 615T299 522Q315 520 356 528T452 552T532
571Q569 579 605 603T649 651Q622 727 575 759T469 778T344 711Q307 682 295 615Z" />
<glyph unicode="&#xe9;" glyph-name="eacute" horiz-adv-x="917" d="M92 362Q37 614 141 758Q178 828 240 882T365 954Q515 1009 635 959T821 758Q833 738 848 689T864 614Q868 571 842 528T774 471Q743 461 669 429T541 383Q398 342 344 324Q356 277 392 257T504
219Q549 209 593 219T662 243T721 264T776 254Q809 217 807 177T776 115Q696 58 571 43T367 68Q244 119 189 177T92 362ZM156 1077Q144 1116 162 1150T223 1208T309 1251T408 1290T487 1321Q630 1382 672 1389Q760 1403 777 1335T729 1208Q682 1175 626 1150T475
1093T350 1049Q344 1047 317 1036T278 1020T243 1013T207 1015T180 1035T156 1077ZM307 682T295 615T299 522Q315 520 356 528T452 552T532 571Q569 579 605 603T649 651Q622 727 575 759T469 778T344 711Q307 682 295 615Z" />
<glyph unicode="&#xea;" glyph-name="ecircumflex" horiz-adv-x="917" d="M92 362Q37 614 141 758Q178 828 240 882T365 954Q515 1009 635 959T821 758Q833 738 848 689T864 614Q868 571 842 528T774 471Q743 461 669 429T541 383Q398 342 344 324Q356 277 392
257T504 219Q549 209 593 219T662 243T721 264T776 254Q809 217 807 177T776 115Q696 58 571 43T367 68Q244 119 189 177T92 362ZM139 1038Q119 1065 139 1131T184 1237Q231 1313 312 1388T438 1460Q536 1452 682 1321Q805 1212 821 1128Q829 1077 793 1035T702
997Q673 999 649 1015T614 1045T573 1094Q569 1100 558 1113T540 1135T521 1157T502 1177T485 1194T467 1206T453 1210Q422 1210 371 1154T295 1057Q264 1006 217 1003T139 1038ZM307 682T295 615T299 522Q315 520 356 528T452 552T532 571Q569 579 605 603T649
651Q622 727 575 759T469 778T344 711Q307 682 295 615Z" />
<glyph unicode="&#xeb;" glyph-name="edieresis" horiz-adv-x="917" d="M92 362Q37 614 141 758Q178 828 240 882T365 954Q515 1009 635 959T821 758Q833 738 848 689T864 614Q868 571 842 528T774 471Q743 461 669 429T541 383Q398 342 344 324Q356 277 392 257T504
219Q549 209 593 219T662 243T721 264T776 254Q809 217 807 177T776 115Q696 58 571 43T367 68Q244 119 189 177T92 362ZM168 1171Q174 1218 207 1250T283 1290Q371 1306 383 1225Q395 1149 342 1085Q303 1040 254 1047Q209 1051 186 1084T168 1171ZM307 682T295
615T299 522Q315 520 356 528T452 552T532 571Q569 579 605 603T649 651Q622 727 575 759T469 778T344 711Q307 682 295 615ZM512 1030T501 1109T541 1245Q592 1300 655 1262Q694 1237 706 1184T688 1083T588 1034Q512 1030 501 1109Z" />
<glyph unicode="&#xec;" glyph-name="igrave" horiz-adv-x="495" d="M-109 1370Q-105 1458 -6 1473Q21 1475 41 1467T91 1437T137 1407Q162 1393 215 1361T313 1303T395 1257Q403 1253 418 1245T440 1233T458 1222T477 1209T490 1197T503 1183T510 1167Q526 1112
499 1060T440 999Q432 991 410 997T379 1004T350 1016T323 1032T298 1050T274 1067Q215 1108 123 1160T-12 1239Q-47 1262 -61 1273T-93 1310T-109 1370ZM72 86T71 98T71 133T73 168T78 209T84 248Q88 283 135 672Q141 721 148 751T170 819T208 875T268 897Q295
901 333 882T377 825Q379 813 377 796T365 743T352 694Q309 475 303 330Q301 312 301 253T297 155T285 98Q262 53 196 34T90 51Q82 59 77 72Z" />
<glyph unicode="&#xed;" glyph-name="iacute" horiz-adv-x="495" d="M-18 1049Q-30 1088 -12 1121T49 1179T135 1222T234 1261T313 1292Q456 1353 498 1360Q586 1374 603 1306T555 1180Q508 1147 452 1122T301 1064T176 1020Q170 1018 143 1007T104 991T69 984T33
986T5 1006T-18 1049ZM72 86T71 98T71 133T73 168T78 209T84 248Q88 283 135 672Q141 721 148 751T170 819T208 875T268 897Q295 901 333 882T377 825Q379 813 377 796T365 743T352 694Q309 475 303 330Q301 312 301 253T297 155T285 98Q262 53 196 34T90 51Q82
59 77 72Z" />
<glyph unicode="&#xee;" glyph-name="icircumflex" horiz-adv-x="495" d="M-68 993Q-88 1020 -68 1086T-23 1192Q24 1268 105 1343T231 1415Q329 1407 475 1276Q598 1167 614 1083Q622 1032 586 990T496 952Q467 954 443 970T407 1000T367 1049Q363 1055 352 1068T333
1090T315 1112T295 1132T278 1149T260 1161T246 1165Q215 1165 164 1109T88 1012Q57 961 10 958T-68 993ZM72 86T71 98T71 133T73 168T78 209T84 248Q88 283 135 672Q141 721 148 751T170 819T208 875T268 897Q295 901 333 882T377 825Q379 813 377 796T365 743T352
694Q309 475 303 330Q301 312 301 253T297 155T285 98Q262 53 196 34T90 51Q82 59 77 72Z" />
<glyph unicode="&#xef;" glyph-name="idieresis" horiz-adv-x="495" d="M-10 1169Q-4 1216 28 1248T104 1288Q192 1304 205 1223Q217 1147 164 1083Q125 1038 76 1044Q31 1048 8 1082T-10 1169ZM72 86T71 98T71 133T73 168T78 209T84 248Q88 283 135 672Q141 721
148 751T170 819T208 875T268 897Q295 901 333 882T377 825Q379 813 377 796T365 743T352 694Q309 475 303 330Q301 312 301 253T297 155T285 98Q262 53 196 34T90 51Q82 59 77 72ZM334 1028T323 1107T362 1243Q413 1298 477 1260Q516 1235 528 1182T510 1081T410
1032Q334 1028 323 1107Z" />
<glyph unicode="&#xf1;" glyph-name="ntilde" horiz-adv-x="944" d="M70 74T73 126T82 242Q84 256 84 264Q88 311 98 395T116 545T125 678Q125 688 126 716T128 758T130 797T134 837T141 872T152 904T168 928T189 949T217 958Q264 966 289 946T322 883T330 794V690Q330
633 336 600Q399 661 422 694Q496 807 594 881Q725 977 807 922Q825 912 845 864T870 766Q876 688 853 495T829 242Q829 230 831 204T834 161T829 133Q809 78 731 65T616 104Q608 231 635 414Q655 582 645 662Q627 660 611 651T578 623T551 592T524 553T500 518Q453
457 433 425T391 353T350 283Q344 273 310 200T247 82T193 33Q127 19 99 46ZM285 1073Q283 1089 286 1105T294 1131T308 1156T319 1176Q344 1219 391 1266Q414 1291 449 1308T531 1324T612 1292Q622 1282 653 1224T713 1163Q736 1163 758 1187T794 1240T832 1284T885
1288Q926 1268 919 1225T888 1142T836 1077Q701 960 592 1053Q576 1065 556 1108T514 1155Q496 1157 477 1144T446 1117T418 1081T399 1053Q366 1018 329 1026T285 1073Z" />
<glyph unicode="&#xf2;" glyph-name="ograve" horiz-adv-x="956" d="M45 375T50 523T127 776Q131 782 141 798T155 819T166 835T177 852T188 866T203 883T219 898T239 915T262 934Q340 993 410 1004Q627 1043 765 928T909 610Q925 493 867 382T702 193Q565 103
406 121Q330 129 250 169T123 258Q45 375 50 523ZM152 1421Q156 1509 254 1524Q281 1526 301 1518T351 1488T397 1458Q422 1444 475 1412T573 1354T655 1309Q663 1305 678 1297T700 1284T719 1273T737 1261T750 1248T763 1234T770 1219Q786 1164 759 1112T700 1051Q692
1043 670 1049T639 1055T610 1067T583 1083T559 1101T535 1118Q476 1159 384 1211T248 1290Q213 1313 199 1324T167 1361T152 1421ZM272 473Q284 393 354 347T520 326Q571 340 624 394T690 514Q717 643 643 738T461 813Q379 799 318 685T272 473Z" />
<glyph unicode="&#xf3;" glyph-name="oacute" horiz-adv-x="956" d="M45 375T50 523T127 776Q131 782 141 798T155 819T166 835T177 852T188 866T203 883T219 898T239 915T262 934Q340 993 410 1004Q627 1043 765 928T909 610Q925 493 867 382T702 193Q565 103
406 121Q330 129 250 169T123 258Q45 375 50 523ZM172 1112Q160 1151 178 1185T240 1243T326 1286T425 1325T504 1356Q647 1417 688 1423Q776 1437 793 1369T745 1243Q698 1210 642 1185T492 1128T367 1083Q361 1081 333 1070T294 1055T260 1048T224 1049T196 1070T172
1112ZM272 473Q284 393 354 347T520 326Q571 340 624 394T690 514Q717 643 643 738T461 813Q379 799 318 685T272 473Z" />
<glyph unicode="&#xf4;" glyph-name="ocircumflex" horiz-adv-x="956" d="M45 375T50 523T127 776Q131 782 141 798T155 819T166 835T177 852T188 866T203 883T219 898T239 915T262 934Q340 993 410 1004Q627 1043 765 928T909 610Q925 493 867 382T702 193Q565
103 406 121Q330 129 250 169T123 258Q45 375 50 523ZM147 1079Q127 1106 147 1172T193 1278Q240 1354 320 1429T446 1501Q544 1493 690 1362Q813 1253 829 1169Q837 1118 801 1076T711 1038Q682 1040 658 1056T622 1086T582 1135Q578 1141 567 1154T548 1176T530
1198T510 1218T493 1235T475 1247T461 1251Q430 1251 379 1195T303 1098Q272 1047 225 1044T147 1079ZM272 473Q284 393 354 347T520 326Q571 340 624 394T690 514Q717 643 643 738T461 813Q379 799 318 685T272 473Z" />
<glyph unicode="&#xf5;" glyph-name="otilde" horiz-adv-x="956" d="M45 375T50 523T127 776Q131 782 141 798T155 819T166 835T177 852T188 866T203 883T219 898T239 915T262 934Q340 993 410 1004Q627 1043 765 928T909 610Q925 493 867 382T702 193Q565 103
406 121Q330 129 250 169T123 258Q45 375 50 523ZM168 1124Q166 1140 169 1157T177 1183T191 1207T203 1227Q228 1270 274 1317Q297 1342 333 1359T415 1375T496 1343Q506 1333 536 1275T596 1214Q619 1214 641 1239T678 1291T715 1335T768 1339Q809 1319 802 1276T772
1193T719 1128Q584 1011 475 1104Q459 1116 439 1159T397 1206Q379 1208 360 1195T329 1169T301 1132T283 1104Q250 1069 212 1077T168 1124ZM272 473Q284 393 354 347T520 326Q571 340 624 394T690 514Q717 643 643 738T461 813Q379 799 318 685T272 473Z" />
<glyph unicode="&#xf6;" glyph-name="odieresis" horiz-adv-x="956" d="M45 375T50 523T127 776Q131 782 141 798T155 819T166 835T177 852T188 866T203 883T219 898T239 915T262 934Q340 993 410 1004Q627 1043 765 928T909 610Q925 493 867 382T702 193Q565
103 406 121Q330 129 250 169T123 258Q45 375 50 523ZM197 1227Q203 1274 235 1305T311 1346Q399 1362 412 1280Q424 1204 371 1141Q332 1096 283 1102Q238 1106 215 1140T197 1227ZM272 473Q284 393 354 347T520 326Q571 340 624 394T690 514Q717 643 643 738T461
813Q379 799 318 685T272 473ZM541 1085T530 1164T569 1300Q620 1355 684 1317Q723 1292 735 1239T717 1139T616 1090Q541 1085 530 1164Z" />
<glyph unicode="&#xf8;" glyph-name="oslash" horiz-adv-x="1085" d="M66 406T113 541T248 754Q357 848 518 862Q528 862 576 858T643 860Q651 862 667 894T717 960T801 1006Q834 1012 873 997T926 950Q940 909 905 857T870 778Q870 776 925 693T989 545Q989 490
993 451T984 374T965 312T937 262T902 221T863 188T821 160T776 135Q698 92 572 81T432 61Q426 57 414 21T372 -51T293 -92Q244 -100 211 -75T174 -12T189 61T209 121Q209 156 165 214T117 281Q66 406 113 541ZM342 504T335 447T360 352Q378 368 398 399T437 467T465
516Q520 604 530 653Q485 671 439 642T368 558ZM545 274Q631 276 701 309T793 406Q805 449 786 508T735 590Q700 563 642 467T545 274Z" />
<glyph unicode="&#xf9;" glyph-name="ugrave" horiz-adv-x="876" d="M59 1380Q63 1468 162 1483Q189 1485 209 1477T259 1447T305 1417Q330 1403 383 1371T481 1313T563 1268Q571 1264 586 1256T608 1243T626 1232T645 1220T658 1207T671 1193T678 1178Q694 1123
667 1071T608 1010Q600 1002 578 1008T547 1014T518 1026T491 1042T466 1061T442 1077Q383 1118 291 1170T156 1249Q121 1272 107 1283T75 1320T59 1380ZM74 600Q78 674 85 718T111 811T172 881T276 901Q313 878 316 823T307 723Q305 705 301 664Q293 603 290 569T285
476T292 382T317 315T370 270T457 270Q512 278 554 380T604 584Q608 619 606 754T614 907Q626 950 683 968T768 967Q836 928 829 662Q825 525 791 403Q738 213 628 127T307 76Q102 125 78 328Q68 416 74 600Z" />
<glyph unicode="&#xfa;" glyph-name="uacute" horiz-adv-x="876" d="M74 600Q78 674 85 718T111 811T172 881T276 901Q313 878 316 823T307 723Q305 705 301 664Q293 603 290 569T285 476T292 382T317 315T370 270T457 270Q512 278 554 380T604 584Q608 619 606
754T614 907Q626 950 683 968T768 967Q836 928 829 662Q825 525 791 403Q738 213 628 127T307 76Q102 125 78 328Q68 416 74 600ZM178 1087Q166 1126 184 1160T246 1218T332 1261T431 1300T510 1331Q653 1392 694 1399Q782 1413 799 1345T752 1219Q705 1186 649
1161T498 1103T373 1059Q367 1057 339 1046T300 1030T266 1023T230 1025T202 1045T178 1087Z" />
<glyph unicode="&#xfb;" glyph-name="ucircumflex" horiz-adv-x="876" d="M74 600Q78 674 85 718T111 811T172 881T276 901Q313 878 316 823T307 723Q305 705 301 664Q293 603 290 569T285 476T292 382T317 315T370 270T457 270Q512 278 554 380T604 584Q608 619
606 754T614 907Q626 950 683 968T768 967Q836 928 829 662Q825 525 791 403Q738 213 628 127T307 76Q102 125 78 328Q68 416 74 600ZM106 1079Q86 1106 106 1172T152 1278Q199 1354 279 1429T406 1501Q504 1493 649 1362Q772 1253 788 1169Q796 1118 760 1076T670
1038Q641 1040 617 1056T581 1086T541 1135Q537 1141 526 1154T507 1176T489 1198T469 1218T452 1235T434 1247T420 1251Q389 1251 338 1195T262 1098Q231 1047 184 1044T106 1079Z" />
<glyph unicode="&#xfc;" glyph-name="udieresis" horiz-adv-x="876" d="M74 600Q78 674 85 718T111 811T172 881T276 901Q313 878 316 823T307 723Q305 705 301 664Q293 603 290 569T285 476T292 382T317 315T370 270T457 270Q512 278 554 380T604 584Q608 619
606 754T614 907Q626 950 683 968T768 967Q836 928 829 662Q825 525 791 403Q738 213 628 127T307 76Q102 125 78 328Q68 416 74 600ZM219 1188Q225 1235 258 1266T334 1307Q422 1323 434 1241Q446 1165 393 1102Q354 1057 305 1063Q260 1067 237 1101T219 1188ZM563
1047T552 1125T592 1262Q643 1317 707 1278Q746 1253 758 1200T740 1100T639 1051Q563 1047 552 1125Z" />
<glyph unicode="&#xfd;" glyph-name="yacute" horiz-adv-x="921" d="M57 829Q67 903 121 939T238 942Q244 938 250 932T261 915L270 897Q274 889 278 874T286 849T293 823T299 797Q412 453 512 319Q524 339 604 612T727 936Q739 952 759 962T803 975T849 963T887
915Q918 849 806 508T580 -41Q572 -57 520 -160T424 -313Q422 -315 410 -330T387 -358T358 -389T321 -420T281 -444T237 -460T192 -458T145 -436Q114 -413 109 -388T120 -337T156 -291T202 -249T236 -219Q345 -98 381 66Q383 95 369 124T330 189T295 246Q277 287
211 404T117 606Q113 616 97 656T73 716T60 769T57 829ZM256 1112Q244 1151 262 1185T324 1243T410 1286T509 1325T588 1356Q731 1417 772 1423Q860 1437 877 1369T829 1243Q782 1210 726 1185T576 1128T451 1083Q445 1081 417 1070T378 1055T343 1048T307 1049T280
1070T256 1112Z" />
<glyph unicode="&#xff;" glyph-name="ydieresis" horiz-adv-x="921" d="M57 829Q67 903 121 939T238 942Q244 938 250 932T261 915L270 897Q274 889 278 874T286 849T293 823T299 797Q412 453 512 319Q524 339 604 612T727 936Q739 952 759 962T803 975T849 963T887
915Q918 849 806 508T580 -41Q572 -57 520 -160T424 -313Q422 -315 410 -330T387 -358T358 -389T321 -420T281 -444T237 -460T192 -458T145 -436Q114 -413 109 -388T120 -337T156 -291T202 -249T236 -219Q345 -98 381 66Q383 95 369 124T330 189T295 246Q277 287
211 404T117 606Q113 616 97 656T73 716T60 769T57 829ZM244 1198Q250 1245 282 1277T358 1317Q446 1333 459 1251Q471 1175 418 1112Q379 1067 330 1073Q285 1077 262 1111T244 1198ZM588 1057T577 1135T616 1272Q667 1327 731 1288Q770 1263 782 1210T764 1110T664
1061Q588 1057 577 1135Z" />
<glyph unicode="&#x152;" glyph-name="OE" horiz-adv-x="1800" d="M104 385Q73 625 129 821T307 1126Q375 1187 402 1208T506 1272Q569 1307 715 1325Q824 1337 963 1333Q1016 1331 1130 1333T1321 1335H1378Q1409 1335 1442 1334T1505 1332T1564 1325T1614 1311T1650
1289T1667 1253Q1681 1149 1618 1124Q1561 1099 1449 1099T1247 1110T1071 1110Q1126 1047 1159 972T1207 850T1239 793Q1282 773 1359 772T1510 778T1643 766T1706 686Q1714 577 1626 555Q1585 545 1440 549T1266 528Q1233 510 1219 484T1192 409T1167 332Q1206
297 1293 291T1460 294T1603 285T1671 207Q1679 88 1595 68Q1503 50 1362 72Q1337 74 1289 74T1214 78Q1185 82 1113 95T1009 112T905 111Q864 107 728 67T504 33Q350 41 276 98Q221 141 169 223T104 385ZM342 465Q365 359 421 293T573 229Q757 233 882 329T1020
612Q1032 811 852 1006Q746 1117 668 1106Q596 1096 531 1058T434 971Q385 895 354 737T342 465Z" />
<glyph unicode="&#x153;" glyph-name="oe" horiz-adv-x="1271" d="M59 332Q45 479 92 627T219 846Q239 864 280 888T346 918Q371 924 442 920T530 918Q542 920 608 948T748 983Q840 991 943 948T1105 811T1114 606Q1079 530 990 483T799 428Q748 424 724 380T707
289Q709 244 754 215T838 197Q910 217 1020 344Q1071 405 1123 408T1194 356Q1208 319 1175 258T1100 152Q942 -26 754 -8Q699 -2 610 39Q592 49 567 65T521 93T479 106Q452 110 388 102T242 106Q170 118 120 184T59 332ZM248 516T255 411T305 297Q336 291 361
290T422 302T479 348T516 449T524 618Q522 647 474 683T391 719Q325 719 287 618ZM692 770Q678 721 707 610Q770 600 853 625T936 696Q938 751 847 773T692 770Z" />
<glyph unicode="&#x178;" glyph-name="Ydieresis" horiz-adv-x="1193" d="M31 1309Q31 1377 105 1435T242 1452Q252 1446 264 1424T284 1381T305 1332T319 1296Q364 1208 397 1135Q413 1098 441 1024T492 904T551 823Q576 835 595 858T635 917T666 967Q803 1164
874 1260Q915 1311 936 1343Q997 1435 999 1438Q1017 1452 1049 1457T1115 1446T1159 1393Q1167 1366 1155 1333T1128 1279T1086 1228T1057 1194Q1020 1147 957 1069T851 935T758 801Q727 754 694 694Q639 610 633 580Q623 537 616 393Q614 334 598 178Q586 55
582 39Q570 8 530 -16T442 -37Q407 -33 389 -2T370 78T372 173T383 274T391 352Q401 536 369 627Q361 650 334 692T297 758Q279 811 226 902T156 1028Q138 1067 88 1165Q82 1175 69 1200T49 1238T37 1272T31 1309ZM354 1620Q360 1667 393 1699T469 1739Q557 1755
569 1673Q581 1597 528 1534Q489 1489 440 1495Q395 1499 372 1533T354 1620ZM698 1479T687 1557T727 1694Q778 1749 842 1710Q881 1685 893 1632T875 1532T774 1483Q698 1479 687 1557Z" />
<glyph unicode="&#x2c6;" glyph-name="circumflex" horiz-adv-x="837" d="M94 1079Q74 1106 94 1172T139 1278Q186 1354 267 1429T393 1501Q491 1493 637 1362Q760 1253 776 1169Q784 1118 748 1076T657 1038Q628 1040 604 1056T569 1086T528 1135Q524 1141 513
1154T495 1176T476 1198T457 1218T440 1235T422 1247T408 1251Q377 1251 326 1195T250 1098Q219 1047 172 1044T94 1079Z" />
<glyph unicode="&#x2dc;" glyph-name="tilde" horiz-adv-x="847" d="M109 1108Q107 1124 110 1140T118 1166T132 1191T143 1210Q168 1253 215 1300Q238 1325 273 1342T355 1359T436 1327Q446 1317 477 1259T537 1198Q560 1198 582 1222T618 1275T656 1319T709
1323Q750 1303 743 1260T712 1177T659 1112Q524 995 416 1087Q400 1099 379 1142T338 1190Q320 1192 301 1179T270 1152T242 1116T223 1087Q190 1052 153 1060T109 1108Z" />
<glyph unicode="&#x2000;" glyph-name="uni2000" horiz-adv-x="1017" />
<glyph unicode="&#x2001;" glyph-name="uni2001" horiz-adv-x="2034" />
<glyph unicode="&#x2002;" glyph-name="uni2002" horiz-adv-x="1017" />
<glyph unicode="&#x2003;" glyph-name="uni2003" horiz-adv-x="2034" />
<glyph unicode="&#x2004;" glyph-name="uni2004" horiz-adv-x="678" />
<glyph unicode="&#x2005;" glyph-name="uni2005" horiz-adv-x="508" />
<glyph unicode="&#x2006;" glyph-name="uni2006" horiz-adv-x="339" />
<glyph unicode="&#x2007;" glyph-name="uni2007" horiz-adv-x="339" />
<glyph unicode="&#x2008;" glyph-name="uni2008" horiz-adv-x="254" />
<glyph unicode="&#x2009;" glyph-name="uni2009" horiz-adv-x="406" />
<glyph unicode="&#x200a;" glyph-name="uni200A" horiz-adv-x="113" />
<glyph unicode="&#x2010;" glyph-name="uni2010" horiz-adv-x="1067" d="M55 557Q55 645 170 657Q211 663 530 664Q557 664 654 667T811 667T907 653Q960 637 984 579T983 461Q975 443 948 430T870 410T787 401T688 398T608 397Q205 385 131 414Q94 426 74 467T55 557Z" />
<glyph unicode="&#x2011;" glyph-name="uni2011" horiz-adv-x="1067" d="M55 557Q55 645 170 657Q211 663 530 664Q557 664 654 667T811 667T907 653Q960 637 984 579T983 461Q975 443 948 430T870 410T787 401T688 398T608 397Q205 385 131 414Q94 426 74 467T55 557Z" />
<glyph unicode="&#x2012;" glyph-name="figuredash" horiz-adv-x="1067" d="M55 557Q55 645 170 657Q211 663 530 664Q557 664 654 667T811 667T907 653Q960 637 984 579T983 461Q975 443 948 430T870 410T787 401T688 398T608 397Q205 385 131 414Q94 426 74
467T55 557Z" />
<glyph unicode="&#x2013;" glyph-name="endash" horiz-adv-x="1366" d="M92 571Q94 591 105 607T137 633T178 651T230 662T285 668T345 670H400Q419 670 454 668T500 666Q715 660 985 659Q1141 663 1210 641Q1261 625 1276 556T1270 457Q1266 449 1255 442T1227
430L1194 422Q1178 418 1153 417T1111 414T1065 412H1022H981H946Q938 412 645 407T285 406Q201 414 141 438Q104 454 95 486T92 571Z" />
<glyph unicode="&#x2014;" glyph-name="emdash" horiz-adv-x="1613" d="M96 537T110 588T166 649Q324 688 588 674Q686 668 1184 668Q1194 668 1241 669T1320 670T1393 666T1458 653Q1501 639 1519 584T1524 473Q1522 461 1511 450T1479 431T1437 419T1383 411T1327
406T1264 403H1203H1144H1092Q1069 403 420 414Q402 414 353 412T266 410T207 416Q148 430 122 483Z" />
<glyph unicode="&#x2018;" glyph-name="quoteleft" horiz-adv-x="931" d="M100 881T97 975T115 1155T188 1309T307 1395Q344 1405 401 1368Q442 1325 436 1274T400 1177T354 1065T356 930Q364 901 406 833T453 739Q459 690 424 648T350 598Q295 588 227 666T131
811Q100 881 97 975Z" />
<glyph unicode="&#x2019;" glyph-name="quoteright" horiz-adv-x="602" d="M168 774Q160 805 175 844T218 929T254 995Q266 1030 268 1096T260 1206Q252 1241 215 1313T180 1430Q182 1477 224 1506T313 1544Q372 1552 418 1478T486 1298T502 1094Q494 971 440
862T319 723Q268 703 223 721T168 774Z" />
<glyph unicode="&#x201a;" glyph-name="quotesinglbase" horiz-adv-x="546" d="M113 63Q105 94 120 133T162 218T199 285Q211 320 213 386T205 496Q197 531 160 603T125 719Q127 766 169 795T258 834Q317 842 363 767T431 587T446 383Q438 260 384 151T264 12Q213
-8 168 10T113 63Z" />
<glyph unicode="&#x201c;" glyph-name="quotedblleft" horiz-adv-x="931" d="M100 881T97 975T115 1155T188 1309T307 1395Q344 1405 401 1368Q442 1325 436 1274T400 1177T354 1065T356 930Q364 901 406 833T453 739Q459 690 424 648T350 598Q295 588 227 666T131
811Q100 881 97 975ZM512 934Q504 1106 557 1236T709 1397Q723 1403 771 1395T827 1368Q852 1319 843 1266T811 1179T768 1084T752 959T803 827T852 737Q854 700 824 662T758 612Q666 585 592 701T512 934Z" />
<glyph unicode="&#x201d;" glyph-name="quotedblright" horiz-adv-x="962" d="M133 567T117 603T116 683T170 766Q176 774 200 800T237 844T258 879Q278 924 282 985T272 1083Q258 1122 215 1178T170 1276Q168 1327 200 1362T285 1411Q361 1434 434 1317Q489 1231
504 1149Q527 1024 490 895T383 686Q270 555 188 563Q133 567 117 603ZM528 651Q520 682 535 721T578 806T614 872Q626 907 628 973T621 1083Q613 1118 576 1191T541 1307Q543 1354 585 1383T674 1421Q733 1429 779 1355T846 1175T862 971Q854 848 800 739T680
600Q629 580 584 598T528 651Z" />
<glyph unicode="&#x201e;" glyph-name="quotedblbase" horiz-adv-x="962" d="M133 -16T117 19T116 99T170 182Q176 190 200 217T237 261T258 295Q278 340 282 401T272 500Q258 539 215 595T170 692Q168 743 200 778T285 827Q361 850 434 733Q489 647 504 565Q527
440 490 311T383 102Q270 -29 188 -20Q133 -16 117 19ZM528 68Q520 99 535 137T578 222T614 289Q626 324 628 390T621 500Q613 535 576 607T541 723Q543 770 585 799T674 838Q733 846 779 771T846 591T862 387Q854 264 800 155T680 16Q629 -4 584 14T528 68Z" />
<glyph unicode="&#x2022;" glyph-name="bullet" horiz-adv-x="745" d="M86 451Q100 574 191 659T399 756Q528 766 603 704T670 516Q664 432 605 362T465 254T295 218T143 270Q72 330 86 451Z" />
<glyph unicode="&#x2026;" glyph-name="ellipsis" horiz-adv-x="495" d="M82 51Q78 141 144 240T324 315Q379 286 397 225T400 103T337 -6T231 -55Q182 -57 133 -27T82 51ZM586 51Q582 141 648 240T827 315Q882 286 901 225T904 103T841 -6T735 -55Q686 -57 637
-27T586 51ZM1087 51Q1083 141 1150 240T1329 315Q1384 286 1402 225T1405 103T1343 -6T1237 -55Q1188 -57 1139 -27T1087 51Z" />
<glyph unicode="&#x202f;" glyph-name="uni202F" horiz-adv-x="406" />
<glyph unicode="&#x2039;" glyph-name="guilsinglleft" horiz-adv-x="712" d="M133 537Q135 560 168 593T229 643Q366 721 518 780Q549 790 588 768T631 719Q639 672 577 628T448 554T381 516Q381 512 441 483T565 412T633 338Q639 295 606 262T518 236Q487 238
426 270Q424 270 390 290T337 323T281 360T223 404T177 448T142 496T133 537Z" />
<glyph unicode="&#x203a;" glyph-name="guilsinglright" horiz-adv-x="776" d="M82 737Q84 782 131 819T219 856Q270 848 325 818T443 744T532 686Q622 629 645 588Q672 539 647 477Q641 461 631 447T604 418T575 393T537 368T499 345T456 321T416 299Q404 293
372 273T319 241T270 219T223 211Q192 213 168 237T137 289Q125 340 167 382T275 462T360 524Q344 551 212 626T82 737Z" />
<glyph unicode="&#x205f;" glyph-name="uni205F" horiz-adv-x="508" />
<glyph unicode="&#x20ac;" glyph-name="Euro" horiz-adv-x="1396" d="M72 782Q62 874 127 918Q147 930 245 935T365 950Q461 1122 602 1248T918 1403Q1012 1423 1146 1398T1294 1315Q1302 1280 1274 1238T1212 1188Q1177 1172 1091 1184T977 1194Q897 1206 770
1114T645 971Q655 959 806 966T1001 938Q1038 834 1010 803Q973 776 896 764T721 746T580 731Q572 717 575 685T584 637Q588 623 725 628T887 590Q899 531 896 497T858 438Q827 418 737 415T635 406Q672 312 801 281T1036 299Q1059 307 1096 330T1149 358Q1229
385 1266 342T1291 235T1231 135Q1196 108 1106 79T954 41Q727 12 567 104T340 393Q207 373 127 408Q86 439 86 485T115 571Q142 587 218 593T317 608Q327 614 329 626T329 660T326 690Q306 702 241 705T126 724T72 782Z" />
<glyph unicode="&#x2122;" glyph-name="trademark" horiz-adv-x="1736" d="M100 1206Q61 1353 236 1389Q279 1397 485 1407Q497 1409 508 1409Q592 1413 685 1399T795 1343Q813 1292 779 1235T686 1169Q672 1167 623 1168T557 1159Q539 1112 533 979T497 770T381
711Q330 721 319 775T321 896T337 1032T313 1141Q284 1139 250 1140T185 1145T131 1164T100 1206ZM741 776T740 806T741 866T755 937T776 1002T796 1061T811 1098Q838 1174 852 1207T898 1291T978 1359T1092 1372Q1133 1368 1172 1305T1219 1241Q1242 1239 1285
1284T1346 1337Q1375 1351 1400 1358T1445 1362T1481 1353T1511 1329T1535 1297T1555 1255T1571 1211T1586 1159T1602 1110Q1635 1018 1649 967Q1659 930 1663 890T1663 810T1635 744T1569 717Q1516 715 1486 755T1447 846T1419 954T1368 1038Q1341 1015 1321 965T1287
876T1236 809T1135 791Q1094 811 1071 912T1018 1038Q981 1011 958 930T901 791T801 739Q772 741 757 758Z" />
<glyph unicode="&#xe000;" glyph-name="uniE000" horiz-adv-x="950" d="M0 0V950H950V0H0Z" />
<glyph unicode="&#xfb01;" glyph-name="uniFB01" horiz-adv-x="1374" d="M22 593Q22 608 27 625Q33 660 68 682T147 707Q159 709 166 707T179 706T186 706T190 707L194 710Q195 711 198 716T205 727Q213 737 215 768T215 828T217 883Q244 1137 305 1280Q356 1401
420 1470T588 1563Q621 1570 651 1570Q795 1570 877 1409Q906 1352 914 1289Q918 1265 918 1246Q918 1217 909 1200Q897 1159 856 1143Q833 1134 810 1133Q793 1133 776 1139Q766 1139 756 1145T737 1165T724 1189T711 1217T700 1243T687 1277T669 1318T647 1345T610
1360Q569 1360 538 1310T494 1211T467 1092Q465 1076 463 1069Q449 1001 443 884Q442 860 442 839Q442 754 459 705Q484 695 524 695Q534 695 546 695Q555 695 564 696Q612 696 662 682Q695 672 711 642T726 582T709 526T666 494Q643 490 563 487T449 465Q438 442
438 322Q438 302 438 280Q438 262 438 245Q438 114 424 59Q410 20 366 6Q343 -1 320 -1Q299 -1 279 5Q236 18 227 51Q216 94 216 200Q216 230 217 266T218 332Q218 439 207 487Q176 495 150 496T112 498T83 508T41 543Q22 563 22 593ZM1004 104T1004 113T1005 133Q1006
156 1007 168T1012 209T1018 248Q1022 283 1069 672Q1098 887 1213 897Q1218 898 1222 898Q1246 898 1277 882Q1315 863 1321 825Q1323 813 1321 796T1309 743T1297 694Q1254 475 1248 330Q1246 312 1246 253T1242 155T1229 98Q1206 53 1135 34Q1110 27 1089 27Q1049
27 1024 51Q1016 59 1011 72T1005 98Q1004 104 1004 113ZM1132 1123Q1132 1162 1158 1196Q1188 1235 1231 1245Q1247 1248 1261 1248Q1297 1248 1323 1230Q1360 1204 1362 1149Q1362 1090 1308 1057Q1271 1035 1233 1034Q1215 1034 1196 1039Q1139 1055 1133 1112Q1133
1117 1132 1123Z" />
<glyph unicode="&#xfb02;" glyph-name="uniFB02" horiz-adv-x="1392" d="M22 593Q22 608 27 625Q33 660 68 682T147 707Q159 709 166 707T179 706T186 706T190 707L194 710Q195 711 198 716T205 727Q213 737 215 768T215 828T217 883Q244 1137 305 1280Q356 1401
420 1470T588 1563Q621 1570 651 1570Q795 1570 877 1409Q906 1352 914 1289Q918 1265 918 1246Q918 1217 909 1200Q897 1159 856 1143Q833 1134 810 1133Q793 1133 776 1139Q766 1139 756 1145T737 1165T724 1189T711 1217T700 1243T687 1277T669 1318T647 1345T610
1360Q569 1360 538 1310T494 1211T467 1092Q465 1076 463 1069Q449 1001 443 884Q442 860 442 839Q442 754 459 705Q484 695 524 695Q534 695 546 695Q555 695 564 696Q612 696 662 682Q695 672 711 642T726 582T709 526T666 494Q643 490 563 487T449 465Q438 442
438 322Q438 302 438 280Q438 262 438 245Q438 114 424 59Q410 20 366 6Q343 -1 320 -1Q299 -1 279 5Q236 18 227 51Q216 94 216 200Q216 230 217 266T218 332Q218 439 207 487Q176 495 150 496T112 498T83 508T41 543Q22 563 22 593ZM1014 79Q1014 93 1015 108Q1018
158 1024 204T1039 304T1051 379Q1114 938 1125 1059Q1127 1084 1131 1162T1140 1278T1158 1371T1198 1457T1264 1499Q1287 1503 1304 1504Q1305 1504 1307 1504Q1323 1504 1333 1493Q1344 1481 1351 1470T1360 1435T1362 1393T1359 1346T1354 1297T1349 1250T1344
1206Q1332 1026 1301 724T1262 328Q1242 121 1219 63Q1199 12 1144 -19Q1114 -36 1088 -37Q1066 -37 1047 -25Q1027 -15 1019 22Q1014 47 1014 79Z" />
<glyph unicode="&#xfb03;" glyph-name="uniFB03" horiz-adv-x="2340" d="M22 593Q22 608 27 625Q33 660 68 682T147 707Q159 709 166 707T179 706T186 706T190 707L194 710Q195 711 198 716T205 727Q213 737 215 768T215 828T217 883Q244 1137 305 1280Q356 1401
420 1470T588 1563Q621 1570 651 1570Q795 1570 877 1409Q906 1352 914 1289Q918 1265 918 1246Q918 1217 909 1200Q897 1159 856 1143Q833 1134 810 1133Q793 1133 776 1139Q766 1139 756 1145T737 1165T724 1189T711 1217T700 1243T687 1277T669 1318T647 1345T610
1360Q569 1360 538 1310T494 1211T467 1092Q465 1076 463 1069Q449 1001 443 884Q442 860 442 839Q442 754 459 705Q484 695 524 695Q534 695 546 695Q555 695 564 696Q612 696 662 682Q695 672 711 642T726 582T709 526T666 494Q643 490 563 487T449 465Q438 442
438 322Q438 302 438 280Q438 262 438 245Q438 114 424 59Q410 20 366 6Q343 -1 320 -1Q299 -1 279 5Q236 18 227 51Q216 94 216 200Q216 230 217 266T218 332Q218 439 207 487Q176 495 150 496T112 498T83 508T41 543Q22 563 22 593ZM989 593Q989 608 994 625Q1000
660 1035 682T1114 707Q1126 709 1133 707T1146 706T1153 706T1157 707L1161 710Q1162 711 1165 716T1172 727Q1180 737 1182 768T1182 828T1184 883Q1211 1137 1272 1280Q1323 1401 1387 1470T1555 1563Q1588 1570 1618 1570Q1762 1570 1844 1409Q1873 1352 1881
1289Q1885 1265 1885 1246Q1885 1217 1876 1200Q1864 1159 1823 1143Q1800 1134 1777 1133Q1760 1133 1743 1139Q1733 1139 1723 1145T1704 1165T1691 1189T1678 1217T1667 1243T1654 1277T1636 1318T1614 1345T1577 1360Q1536 1360 1505 1310T1461 1211T1434 1092Q1432
1076 1430 1069Q1416 1001 1410 884Q1409 860 1409 839Q1409 754 1426 705Q1451 695 1491 695Q1501 695 1513 695Q1522 695 1531 696Q1579 696 1629 682Q1662 672 1678 642T1693 582T1676 526T1633 494Q1610 490 1530 487T1416 465Q1405 442 1405 322Q1405 302
1405 280Q1405 262 1405 245Q1405 114 1391 59Q1377 20 1333 6Q1310 -1 1287 -1Q1266 -1 1246 5Q1203 18 1194 51Q1183 94 1183 200Q1183 230 1184 266T1185 332Q1185 439 1174 487Q1143 495 1117 496T1079 498T1050 508T1008 543Q989 563 989 593ZM1970 104T1970
113T1971 133Q1972 156 1973 168T1978 209T1984 248Q1988 283 2035 672Q2064 887 2179 897Q2184 898 2188 898Q2212 898 2243 882Q2281 863 2287 825Q2289 813 2287 796T2275 743T2263 694Q2220 475 2214 330Q2212 312 2212 253T2208 155T2195 98Q2172 53 2101
34Q2076 27 2055 27Q2015 27 1990 51Q1982 59 1977 72T1971 98Q1970 104 1970 113ZM2098 1123Q2098 1162 2124 1196Q2154 1235 2197 1245Q2213 1248 2227 1248Q2263 1248 2289 1230Q2326 1204 2328 1149Q2328 1090 2274 1057Q2237 1035 2199 1034Q2181 1034 2162
1039Q2105 1055 2099 1112Q2099 1117 2098 1123Z" />
<glyph unicode="&#xfb04;" glyph-name="uniFB04" horiz-adv-x="2359" d="M22 593Q22 608 27 625Q33 660 68 682T147 707Q159 709 166 707T179 706T186 706T190 707L194 710Q195 711 198 716T205 727Q213 737 215 768T215 828T217 883Q244 1137 305 1280Q356 1401
420 1470T588 1563Q621 1570 651 1570Q795 1570 877 1409Q906 1352 914 1289Q918 1265 918 1246Q918 1217 909 1200Q897 1159 856 1143Q833 1134 810 1133Q793 1133 776 1139Q766 1139 756 1145T737 1165T724 1189T711 1217T700 1243T687 1277T669 1318T647 1345T610
1360Q569 1360 538 1310T494 1211T467 1092Q465 1076 463 1069Q449 1001 443 884Q442 860 442 839Q442 754 459 705Q484 695 524 695Q534 695 546 695Q555 695 564 696Q612 696 662 682Q695 672 711 642T726 582T709 526T666 494Q643 490 563 487T449 465Q438 442
438 322Q438 302 438 280Q438 262 438 245Q438 114 424 59Q410 20 366 6Q343 -1 320 -1Q299 -1 279 5Q236 18 227 51Q216 94 216 200Q216 230 217 266T218 332Q218 439 207 487Q176 495 150 496T112 498T83 508T41 543Q22 563 22 593ZM989 593Q989 608 994 625Q1000
660 1035 682T1114 707Q1126 709 1133 707T1146 706T1153 706T1157 707L1161 710Q1162 711 1165 716T1172 727Q1180 737 1182 768T1182 828T1184 883Q1211 1137 1272 1280Q1323 1401 1387 1470T1555 1563Q1588 1570 1618 1570Q1762 1570 1844 1409Q1873 1352 1881
1289Q1885 1265 1885 1246Q1885 1217 1876 1200Q1864 1159 1823 1143Q1800 1134 1777 1133Q1760 1133 1743 1139Q1733 1139 1723 1145T1704 1165T1691 1189T1678 1217T1667 1243T1654 1277T1636 1318T1614 1345T1577 1360Q1536 1360 1505 1310T1461 1211T1434 1092Q1432
1076 1430 1069Q1416 1001 1410 884Q1409 860 1409 839Q1409 754 1426 705Q1451 695 1491 695Q1501 695 1513 695Q1522 695 1531 696Q1579 696 1629 682Q1662 672 1678 642T1693 582T1676 526T1633 494Q1610 490 1530 487T1416 465Q1405 442 1405 322Q1405 302
1405 280Q1405 262 1405 245Q1405 114 1391 59Q1377 20 1333 6Q1310 -1 1287 -1Q1266 -1 1246 5Q1203 18 1194 51Q1183 94 1183 200Q1183 230 1184 266T1185 332Q1185 439 1174 487Q1143 495 1117 496T1079 498T1050 508T1008 543Q989 563 989 593ZM1980 79Q1980
93 1981 108Q1984 158 1990 204T2005 304T2017 379Q2080 938 2091 1059Q2093 1084 2097 1162T2106 1278T2124 1371T2164 1457T2230 1499Q2253 1503 2270 1504Q2271 1504 2273 1504Q2289 1504 2299 1493Q2310 1481 2317 1470T2326 1435T2328 1393T2325 1346T2320
1297T2315 1250T2310 1206Q2298 1026 2267 724T2228 328Q2208 121 2185 63Q2165 12 2110 -19Q2080 -36 2054 -37Q2032 -37 2013 -25Q1993 -15 1985 22Q1980 47 1980 79Z" />
</font>
</defs>
</svg>
