<?xml version="1.0" standalone="no"?>
<!DOCTYPE svg PUBLIC "-//W3C//DTD SVG 1.1//EN" "http://www.w3.org/Graphics/SVG/1.1/DTD/svg11.dtd" >
<svg xmlns="http://www.w3.org/2000/svg" xmlns:xlink="http://www.w3.org/1999/xlink" version="1.1">
<metadata>
Created by FontForge 20201107 at Wed May 31 05:49:58 2017
 By 
(c) 2015-2017 Apple Inc. All rights reserved.
</metadata>
<defs>
<font id="SFProDisplay-Regular" horiz-adv-x="1680" >
  <font-face 
    font-family="SF Pro Display"
    font-weight="400"
    font-stretch="normal"
    units-per-em="2048"
    panose-1="0 0 5 0 0 0 0 0 0 0"
    ascent="1638"
    descent="-410"
    x-height="1040"
    cap-height="1443"
    bbox="-545 -494 2564 2200"
    underline-thickness="120"
    underline-position="-490"
    unicode-range="U+0020-1F189"
  />
<missing-glyph horiz-adv-x="2048" 
d="M100 -494v284h1848v-284h-1848zM100 -62v284h1848v-284h-1848zM100 370v284h1848v-284h-1848zM100 802v284h1848v-284h-1848zM100 1234v284h1848v-284h-1848zM100 1666v284h1848v-284h-1848z" />
    <glyph glyph-name="uni2460" unicode="&#x31;&#x20dd;" 
d="M939 388h-130v571h-6l-166 -114v117l172 119h130v-693zM840 78q176 0 322 86t229.5 233.5t83.5 322.5t-83.5 322.5t-229.5 233.5t-322 86t-322 -86t-229.5 -233.5t-83.5 -322.5t83.5 -322.5t229.5 -233.5t322 -86zM840 -50q-156 0 -299 61.5t-246 164.5t-164.5 246
t-61.5 299t61.5 299t164.5 246t246 164.5t299 61.5t299 -61.5t246 -164.5t164.5 -246t61.5 -299t-61.5 -299t-164.5 -246t-246 -164.5t-299 -61.5z" />
    <glyph glyph-name="uni2461" unicode="&#x32;&#x20dd;" 
d="M722 878h-124v6q0 86 63.5 148t179.5 62q108 0 174.5 -54.5t66.5 -138.5q0 -33 -9 -61.5t-31.5 -59t-36.5 -46.5t-49 -52l-174 -185v-6h313v-103h-492v77l268 280q26 26 40.5 43.5t28 45.5t13.5 56q0 45 -32.5 74t-81.5 29q-54 0 -85.5 -31.5t-31.5 -77.5v-6zM840 78
q176 0 322 86t229.5 233.5t83.5 322.5t-83.5 322.5t-229.5 233.5t-322 86t-322 -86t-229.5 -233.5t-83.5 -322.5t83.5 -322.5t229.5 -233.5t322 -86zM840 -50q-156 0 -299 61.5t-246 164.5t-164.5 246t-61.5 299t61.5 299t164.5 246t246 164.5t299 61.5t299 -61.5
t246 -164.5t164.5 -246t61.5 -299t-61.5 -299t-164.5 -246t-246 -164.5t-299 -61.5z" />
    <glyph glyph-name="uni2462" unicode="&#x33;&#x20dd;" 
d="M760 696v98h77q51 0 84.5 29.5t33.5 73.5q-1 43 -34 71t-84 28t-84 -26.5t-35 -62.5h-122q2 80 67 133t177 54q109 0 175.5 -50t68.5 -129q1 -67 -42.5 -110t-92.5 -51v-6q59 -6 107.5 -48.5t49.5 -118.5q1 -93 -76.5 -149.5t-193.5 -56.5q-115 0 -183.5 53.5
t-71.5 134.5h120q4 -39 41.5 -64t94.5 -26q62 0 101 32t39 81q-2 49 -39 79.5t-97 30.5h-81zM840 78q176 0 322 86t229.5 233.5t83.5 322.5t-83.5 322.5t-229.5 233.5t-322 86t-322 -86t-229.5 -233.5t-83.5 -322.5t83.5 -322.5t229.5 -233.5t322 -86zM840 -50
q-156 0 -299 61.5t-246 164.5t-164.5 246t-61.5 299t61.5 299t164.5 246t246 164.5t299 61.5t299 -61.5t246 -164.5t164.5 -246t61.5 -299t-61.5 -299t-164.5 -246t-246 -164.5t-299 -61.5z" />
    <glyph glyph-name="uni2463" unicode="&#x34;&#x20dd;" 
d="M815 1081h189v-458h91v-102h-91v-133h-123v133h-352v103q30 54 69.5 117.5t68 108.5t77 119.5t71.5 111.5zM650 623h231v361h-6q-135 -198 -225 -357v-4zM840 78q176 0 322 86t229.5 233.5t83.5 322.5t-83.5 322.5t-229.5 233.5t-322 86t-322 -86t-229.5 -233.5
t-83.5 -322.5t83.5 -322.5t229.5 -233.5t322 -86zM840 -50q-156 0 -299 61.5t-246 164.5t-164.5 246t-61.5 299t61.5 299t164.5 246t246 164.5t299 61.5t299 -61.5t246 -164.5t164.5 -246t61.5 -299t-61.5 -299t-164.5 -246t-246 -164.5t-299 -61.5z" />
    <glyph glyph-name="uni2464" unicode="&#x35;&#x20dd;" 
d="M592 562h121q9 -43 46.5 -65t88.5 -22q56 0 97 38.5t41 102.5q0 58 -40.5 94.5t-98.5 36.5q-46 0 -79 -20.5t-47 -47.5h-114l32 402h434v-102h-329l-17 -195h6q15 21 53.5 40.5t93.5 19.5q99 0 166 -60.5t67 -164.5q0 -109 -74.5 -176.5t-195.5 -67.5q-108 0 -177 53
t-74 134zM840 78q176 0 322 86t229.5 233.5t83.5 322.5t-83.5 322.5t-229.5 233.5t-322 86t-322 -86t-229.5 -233.5t-83.5 -322.5t83.5 -322.5t229.5 -233.5t322 -86zM840 -50q-156 0 -299 61.5t-246 164.5t-164.5 246t-61.5 299t61.5 299t164.5 246t246 164.5t299 61.5
t299 -61.5t246 -164.5t164.5 -246t61.5 -299t-61.5 -299t-164.5 -246t-246 -164.5t-299 -61.5z" />
    <glyph glyph-name="uni2465" unicode="&#x36;&#x20dd;" 
d="M1089 926h-125q-8 27 -37.5 47.5t-77.5 20.5q-73 0 -116 -68.5t-42 -186.5h7q18 41 63.5 70t114.5 29q93 0 160.5 -59t67.5 -163q0 -112 -73 -176.5t-190 -64.5q-151 0 -222 110q-54 84 -54 229q0 189 76.5 284t209.5 95q106 0 170 -51t68 -116zM706 611q0 -63 39 -100
t97 -37q60 0 98 35.5t38 100.5q0 63 -39.5 97.5t-96.5 34.5q-60 0 -98 -36.5t-38 -94.5zM840 78q176 0 322 86t229.5 233.5t83.5 322.5t-83.5 322.5t-229.5 233.5t-322 86t-322 -86t-229.5 -233.5t-83.5 -322.5t83.5 -322.5t229.5 -233.5t322 -86zM840 -50q-156 0 -299 61.5
t-246 164.5t-164.5 246t-61.5 299t61.5 299t164.5 246t246 164.5t299 61.5t299 -61.5t246 -164.5t164.5 -246t61.5 -299t-61.5 -299t-164.5 -246t-246 -164.5t-299 -61.5z" />
    <glyph glyph-name="uni2466" unicode="&#x37;&#x20dd;" 
d="M612 1071h491v-105l-296 -588h-137l301 584v6h-359v103zM840 78q176 0 322 86t229.5 233.5t83.5 322.5t-83.5 322.5t-229.5 233.5t-322 86t-322 -86t-229.5 -233.5t-83.5 -322.5t83.5 -322.5t229.5 -233.5t322 -86zM840 -50q-156 0 -299 61.5t-246 164.5t-164.5 246
t-61.5 299t61.5 299t164.5 246t246 164.5t299 61.5t299 -61.5t246 -164.5t164.5 -246t61.5 -299t-61.5 -299t-164.5 -246t-246 -164.5t-299 -61.5z" />
    <glyph glyph-name="uni2467" unicode="&#x38;&#x20dd;" 
d="M840 467q63 0 104 33.5t41 85.5t-40.5 85.5t-104.5 33.5q-63 0 -104.5 -34t-41.5 -85q0 -52 41 -85.5t105 -33.5zM840 793q53 0 87 29.5t34 75.5t-34 74.5t-87 28.5t-87 -28.5t-34 -74.5t34 -75.5t87 -29.5zM838 375q-122 0 -197.5 56t-75.5 147q0 64 41.5 111.5
t109.5 61.5v5q-57 18 -89.5 59t-32.5 96q0 80 69 131.5t177 51.5t177 -51.5t69 -131.5q0 -55 -33 -97t-89 -58v-5q68 -14 109.5 -61t41.5 -111q0 -91 -77 -147.5t-200 -56.5zM840 78q176 0 322 86t229.5 233.5t83.5 322.5t-83.5 322.5t-229.5 233.5t-322 86t-322 -86
t-229.5 -233.5t-83.5 -322.5t83.5 -322.5t229.5 -233.5t322 -86zM840 -50q-156 0 -299 61.5t-246 164.5t-164.5 246t-61.5 299t61.5 299t164.5 246t246 164.5t299 61.5t299 -61.5t246 -164.5t164.5 -246t61.5 -299t-61.5 -299t-164.5 -246t-246 -164.5t-299 -61.5z" />
    <glyph glyph-name="uni2468" unicode="&#x39;&#x20dd;" 
d="M577 858q0 109 74 172.5t190 63.5q57 0 103.5 -17t86 -54.5t62 -108t22.5 -167.5q0 -371 -287 -371q-105 0 -166 47.5t-67 112.5h125q7 -24 36.5 -42.5t73.5 -18.5q85 0 125.5 70.5t35.5 182.5h-6q-17 -43 -62.5 -71.5t-112.5 -28.5q-98 0 -165.5 61.5t-67.5 168.5z
M972 857q0 65 -38 102t-98 37q-57 0 -95 -37t-38 -100q0 -64 38.5 -99.5t96.5 -35.5q57 0 95.5 35t38.5 98zM840 78q176 0 322 86t229.5 233.5t83.5 322.5t-83.5 322.5t-229.5 233.5t-322 86t-322 -86t-229.5 -233.5t-83.5 -322.5t83.5 -322.5t229.5 -233.5t322 -86z
M840 -50q-156 0 -299 61.5t-246 164.5t-164.5 246t-61.5 299t61.5 299t164.5 246t246 164.5t299 61.5t299 -61.5t246 -164.5t164.5 -246t61.5 -299t-61.5 -299t-164.5 -246t-246 -164.5t-299 -61.5z" />
    <glyph glyph-name="uni24B6" unicode="A&#x20dd;" 
d="M740 688h200l-95 287h-10zM650 408h-132l248 693h148l248 -693h-132l-62 186h-256zM840 78q176 0 322 86t229.5 233.5t83.5 322.5t-83.5 322.5t-229.5 233.5t-322 86t-322 -86t-229.5 -233.5t-83.5 -322.5t83.5 -322.5t229.5 -233.5t322 -86zM840 -50q-156 0 -299 61.5
t-246 164.5t-164.5 246t-61.5 299t61.5 299t164.5 246t246 164.5t299 61.5t299 -61.5t246 -164.5t164.5 -246t61.5 -299t-61.5 -299t-164.5 -246t-246 -164.5t-299 -61.5z" />
    <glyph glyph-name="uni24B7" unicode="B&#x20dd;" 
d="M603 388v693h294q97 0 154 -46t57 -125q0 -60 -33 -99t-89 -53v-5q71 -8 116 -52t45 -118q0 -91 -69.5 -143t-183.5 -52h-291zM732 984v-194h98q150 0 150 99q0 44 -29.5 69.5t-81.5 25.5h-137zM732 700v-215h111q90 0 130.5 25.5t40.5 78.5q0 52 -35.5 81.5t-100.5 29.5
h-146zM840 78q176 0 322 86t229.5 233.5t83.5 322.5t-83.5 322.5t-229.5 233.5t-322 86t-322 -86t-229.5 -233.5t-83.5 -322.5t83.5 -322.5t229.5 -233.5t322 -86zM840 -50q-156 0 -299 61.5t-246 164.5t-164.5 246t-61.5 299t61.5 299t164.5 246t246 164.5t299 61.5
t299 -61.5t246 -164.5t164.5 -246t61.5 -299t-61.5 -299t-164.5 -246t-246 -164.5t-299 -61.5z" />
    <glyph glyph-name="uni24B8" unicode="C&#x20dd;" 
d="M1008 606h132q-16 -105 -98 -168t-204 -63q-145 0 -234.5 99t-89.5 260t89.5 260.5t234.5 99.5q125 0 207.5 -65.5t96.5 -174.5h-130q-8 59 -56.5 97t-115.5 38q-88 0 -141 -70t-53 -185t53 -184.5t141 -69.5q65 0 112.5 35.5t55.5 90.5zM840 78q176 0 322 86
t229.5 233.5t83.5 322.5t-83.5 322.5t-229.5 233.5t-322 86t-322 -86t-229.5 -233.5t-83.5 -322.5t83.5 -322.5t229.5 -233.5t322 -86zM840 -50q-156 0 -299 61.5t-246 164.5t-164.5 246t-61.5 299t61.5 299t164.5 246t246 164.5t299 61.5t299 -61.5t246 -164.5t164.5 -246
t61.5 -299t-61.5 -299t-164.5 -246t-246 -164.5t-299 -61.5z" />
    <glyph glyph-name="uni24B9" unicode="D&#x20dd;" 
d="M596 1081h256q161 0 242 -88.5t81 -256.5t-81 -258t-242 -90h-256v693zM726 978v-487h110q205 0 205 243q0 244 -205 244h-110zM840 78q176 0 322 86t229.5 233.5t83.5 322.5t-83.5 322.5t-229.5 233.5t-322 86t-322 -86t-229.5 -233.5t-83.5 -322.5t83.5 -322.5
t229.5 -233.5t322 -86zM840 -50q-156 0 -299 61.5t-246 164.5t-164.5 246t-61.5 299t61.5 299t164.5 246t246 164.5t299 61.5t299 -61.5t246 -164.5t164.5 -246t61.5 -299t-61.5 -299t-164.5 -246t-246 -164.5t-299 -61.5z" />
    <glyph glyph-name="uni24BA" unicode="E&#x20dd;" 
d="M1075 491v-103h-459v693h459v-103h-330v-190h311v-98h-311v-199h330zM840 78q176 0 322 86t229.5 233.5t83.5 322.5t-83.5 322.5t-229.5 233.5t-322 86t-322 -86t-229.5 -233.5t-83.5 -322.5t83.5 -322.5t229.5 -233.5t322 -86zM840 -50q-156 0 -299 61.5t-246 164.5
t-164.5 246t-61.5 299t61.5 299t164.5 246t246 164.5t299 61.5t299 -61.5t246 -164.5t164.5 -246t61.5 -299t-61.5 -299t-164.5 -246t-246 -164.5t-299 -61.5z" />
    <glyph glyph-name="uni24BB" unicode="F&#x20dd;" 
d="M778 388h-131v693h454v-104h-323v-205h295v-102h-295v-282zM840 78q176 0 322 86t229.5 233.5t83.5 322.5t-83.5 322.5t-229.5 233.5t-322 86t-322 -86t-229.5 -233.5t-83.5 -322.5t83.5 -322.5t229.5 -233.5t322 -86zM840 -50q-156 0 -299 61.5t-246 164.5t-164.5 246
t-61.5 299t61.5 299t164.5 246t246 164.5t299 61.5t299 -61.5t246 -164.5t164.5 -246t61.5 -299t-61.5 -299t-164.5 -246t-246 -164.5t-299 -61.5z" />
    <glyph glyph-name="uni24BC" unicode="G&#x20dd;" 
d="M1011 604v57h-160v95h284v-122q0 -117 -76.5 -188t-218.5 -71q-146 0 -236 99.5t-90 259.5q0 161 90.5 260.5t235.5 99.5q122 0 204 -63t96 -167h-130q-8 54 -56 89.5t-112 35.5q-89 0 -142.5 -69.5t-53.5 -185.5t53.5 -185t142.5 -69q81 0 125 34t44 90zM840 78
q176 0 322 86t229.5 233.5t83.5 322.5t-83.5 322.5t-229.5 233.5t-322 86t-322 -86t-229.5 -233.5t-83.5 -322.5t83.5 -322.5t229.5 -233.5t322 -86zM840 -50q-156 0 -299 61.5t-246 164.5t-164.5 246t-61.5 299t61.5 299t164.5 246t246 164.5t299 61.5t299 -61.5
t246 -164.5t164.5 -246t61.5 -299t-61.5 -299t-164.5 -246t-246 -164.5t-299 -61.5z" />
    <glyph glyph-name="uni24BD" unicode="H&#x20dd;" 
d="M1131 388h-130v304h-321v-304h-130v693h130v-286h321v286h130v-693zM840 78q176 0 322 86t229.5 233.5t83.5 322.5t-83.5 322.5t-229.5 233.5t-322 86t-322 -86t-229.5 -233.5t-83.5 -322.5t83.5 -322.5t229.5 -233.5t322 -86zM840 -50q-156 0 -299 61.5t-246 164.5
t-164.5 246t-61.5 299t61.5 299t164.5 246t246 164.5t299 61.5t299 -61.5t246 -164.5t164.5 -246t61.5 -299t-61.5 -299t-164.5 -246t-246 -164.5t-299 -61.5z" />
    <glyph glyph-name="uni24BE" unicode="I&#x20dd;" 
d="M906 388h-132v693h132v-693zM840 78q176 0 322 86t229.5 233.5t83.5 322.5t-83.5 322.5t-229.5 233.5t-322 86t-322 -86t-229.5 -233.5t-83.5 -322.5t83.5 -322.5t229.5 -233.5t322 -86zM840 -50q-156 0 -299 61.5t-246 164.5t-164.5 246t-61.5 299t61.5 299t164.5 246
t246 164.5t299 61.5t299 -61.5t246 -164.5t164.5 -246t61.5 -299t-61.5 -299t-164.5 -246t-246 -164.5t-299 -61.5z" />
    <glyph glyph-name="uni24BF" unicode="J&#x20dd;" 
d="M576 576h126q1 -41 28.5 -66t71.5 -25q53 0 80 30t27 85v481h130v-477q0 -110 -62.5 -169.5t-173.5 -59.5q-107 0 -167 57t-60 144zM840 78q176 0 322 86t229.5 233.5t83.5 322.5t-83.5 322.5t-229.5 233.5t-322 86t-322 -86t-229.5 -233.5t-83.5 -322.5t83.5 -322.5
t229.5 -233.5t322 -86zM840 -50q-156 0 -299 61.5t-246 164.5t-164.5 246t-61.5 299t61.5 299t164.5 246t246 164.5t299 61.5t299 -61.5t246 -164.5t164.5 -246t61.5 -299t-61.5 -299t-164.5 -246t-246 -164.5t-299 -61.5z" />
    <glyph glyph-name="uni24C0" unicode="K&#x20dd;" 
d="M1155 1081l-263 -297l274 -396h-158l-212 312l-78 -84v-228h-130v693h130v-317h5l287 317h145zM840 78q176 0 322 86t229.5 233.5t83.5 322.5t-83.5 322.5t-229.5 233.5t-322 86t-322 -86t-229.5 -233.5t-83.5 -322.5t83.5 -322.5t229.5 -233.5t322 -86zM840 -50
q-156 0 -299 61.5t-246 164.5t-164.5 246t-61.5 299t61.5 299t164.5 246t246 164.5t299 61.5t299 -61.5t246 -164.5t164.5 -246t61.5 -299t-61.5 -299t-164.5 -246t-246 -164.5t-299 -61.5z" />
    <glyph glyph-name="uni24C1" unicode="L&#x20dd;" 
d="M1108 495v-107h-446v693h131v-586h315zM840 78q176 0 322 86t229.5 233.5t83.5 322.5t-83.5 322.5t-229.5 233.5t-322 86t-322 -86t-229.5 -233.5t-83.5 -322.5t83.5 -322.5t229.5 -233.5t322 -86zM840 -50q-156 0 -299 61.5t-246 164.5t-164.5 246t-61.5 299t61.5 299
t164.5 246t246 164.5t299 61.5t299 -61.5t246 -164.5t164.5 -246t61.5 -299t-61.5 -299t-164.5 -246t-246 -164.5t-299 -61.5z" />
    <glyph glyph-name="uni24C2" unicode="M&#x20dd;" 
d="M608 388h-117v693h132l216 -533h4l216 533h130v-693h-117v473h-6l-180 -453h-91l-181 453h-6v-473zM840 78q176 0 322 86t229.5 233.5t83.5 322.5t-83.5 322.5t-229.5 233.5t-322 86t-322 -86t-229.5 -233.5t-83.5 -322.5t83.5 -322.5t229.5 -233.5t322 -86zM840 -50
q-156 0 -299 61.5t-246 164.5t-164.5 246t-61.5 299t61.5 299t164.5 246t246 164.5t299 61.5t299 -61.5t246 -164.5t164.5 -246t61.5 -299t-61.5 -299t-164.5 -246t-246 -164.5t-299 -61.5z" />
    <glyph glyph-name="uni24C3" unicode="N&#x20dd;" 
d="M678 388h-124v693h111l331 -482h6v482h124v-693h-111l-332 484h-5v-484zM840 78q176 0 322 86t229.5 233.5t83.5 322.5t-83.5 322.5t-229.5 233.5t-322 86t-322 -86t-229.5 -233.5t-83.5 -322.5t83.5 -322.5t229.5 -233.5t322 -86zM840 -50q-156 0 -299 61.5t-246 164.5
t-164.5 246t-61.5 299t61.5 299t164.5 246t246 164.5t299 61.5t299 -61.5t246 -164.5t164.5 -246t61.5 -299t-61.5 -299t-164.5 -246t-246 -164.5t-299 -61.5z" />
    <glyph glyph-name="uni24C4" unicode="O&#x20dd;" 
d="M840 480q84 0 139 67.5t55 186.5q0 120 -55 187.5t-139 67.5t-139 -67.5t-55 -187.5q0 -119 55 -186.5t139 -67.5zM840 375q-140 0 -233 96.5t-93 262.5q0 167 93 263.5t233 96.5t233 -96.5t93 -263.5q0 -166 -93 -262.5t-233 -96.5zM840 78q176 0 322 86t229.5 233.5
t83.5 322.5t-83.5 322.5t-229.5 233.5t-322 86t-322 -86t-229.5 -233.5t-83.5 -322.5t83.5 -322.5t229.5 -233.5t322 -86zM840 -50q-156 0 -299 61.5t-246 164.5t-164.5 246t-61.5 299t61.5 299t164.5 246t246 164.5t299 61.5t299 -61.5t246 -164.5t164.5 -246t61.5 -299
t-61.5 -299t-164.5 -246t-246 -164.5t-299 -61.5z" />
    <glyph glyph-name="uni24C5" unicode="P&#x20dd;" 
d="M902 1081q112 0 177 -64t65 -163q0 -100 -65 -162.5t-178 -62.5h-153v-241h-129v693h283zM1011 854q0 60 -34.5 93t-96.5 33h-132v-251h132q62 0 96.5 32.5t34.5 92.5zM840 78q176 0 322 86t229.5 233.5t83.5 322.5t-83.5 322.5t-229.5 233.5t-322 86t-322 -86
t-229.5 -233.5t-83.5 -322.5t83.5 -322.5t229.5 -233.5t322 -86zM840 -50q-156 0 -299 61.5t-246 164.5t-164.5 246t-61.5 299t61.5 299t164.5 246t246 164.5t299 61.5t299 -61.5t246 -164.5t164.5 -246t61.5 -299t-61.5 -299t-164.5 -246t-246 -164.5t-299 -61.5z" />
    <glyph glyph-name="uni24C6" unicode="Q&#x20dd;" 
d="M1140 319h-128l-56 76q-55 -20 -116 -20q-140 0 -233 96.5t-93 262.5q0 167 93 263.5t233 96.5t233 -96.5t93 -263.5q0 -188 -120 -288zM840 480q28 0 49 7l-84 115h126l44 -60q59 70 59 192q0 120 -55 187.5t-139 67.5t-139 -67.5t-55 -187.5q0 -119 55 -186.5
t139 -67.5zM840 78q176 0 322 86t229.5 233.5t83.5 322.5t-83.5 322.5t-229.5 233.5t-322 86t-322 -86t-229.5 -233.5t-83.5 -322.5t83.5 -322.5t229.5 -233.5t322 -86zM840 -50q-156 0 -299 61.5t-246 164.5t-164.5 246t-61.5 299t61.5 299t164.5 246t246 164.5t299 61.5
t299 -61.5t246 -164.5t164.5 -246t61.5 -299t-61.5 -299t-164.5 -246t-246 -164.5t-299 -61.5z" />
    <glyph glyph-name="uni24C7" unicode="R&#x20dd;" 
d="M874 1081q116 0 182.5 -58.5t66.5 -157.5q0 -71 -38 -122t-95 -72l146 -283h-146l-128 263h-142v-263h-128v693h282zM720 747h132q65 0 101 29t36 85q0 57 -36 88.5t-97 31.5h-136v-234zM840 78q176 0 322 86t229.5 233.5t83.5 322.5t-83.5 322.5t-229.5 233.5t-322 86
t-322 -86t-229.5 -233.5t-83.5 -322.5t83.5 -322.5t229.5 -233.5t322 -86zM840 -50q-156 0 -299 61.5t-246 164.5t-164.5 246t-61.5 299t61.5 299t164.5 246t246 164.5t299 61.5t299 -61.5t246 -164.5t164.5 -246t61.5 -299t-61.5 -299t-164.5 -246t-246 -164.5t-299 -61.5z
" />
    <glyph glyph-name="uni24C8" unicode="S&#x20dd;" 
d="M560 582h127q5 -48 48 -77.5t110 -29.5t106.5 28t39.5 75q0 36 -27 58.5t-88 37.5l-117 26q-180 42 -180 189q0 92 73.5 149t192.5 57q116 0 190 -56t75 -147h-124q-4 47 -42.5 75.5t-99.5 28.5q-60 0 -97 -28t-37 -72q0 -65 100 -87l117 -26q99 -23 146 -70t47 -124
q0 -99 -76 -156.5t-207 -57.5q-125 0 -200 56t-77 151zM840 78q176 0 322 86t229.5 233.5t83.5 322.5t-83.5 322.5t-229.5 233.5t-322 86t-322 -86t-229.5 -233.5t-83.5 -322.5t83.5 -322.5t229.5 -233.5t322 -86zM840 -50q-156 0 -299 61.5t-246 164.5t-164.5 246
t-61.5 299t61.5 299t164.5 246t246 164.5t299 61.5t299 -61.5t246 -164.5t164.5 -246t61.5 -299t-61.5 -299t-164.5 -246t-246 -164.5t-299 -61.5z" />
    <glyph glyph-name="uni24C9" unicode="T&#x20dd;" 
d="M906 368h-132v588h-210v105h552v-105h-210v-588zM840 78q176 0 322 86t229.5 233.5t83.5 322.5t-83.5 322.5t-229.5 233.5t-322 86t-322 -86t-229.5 -233.5t-83.5 -322.5t83.5 -322.5t229.5 -233.5t322 -86zM840 -50q-156 0 -299 61.5t-246 164.5t-164.5 246t-61.5 299
t61.5 299t164.5 246t246 164.5t299 61.5t299 -61.5t246 -164.5t164.5 -246t61.5 -299t-61.5 -299t-164.5 -246t-246 -164.5t-299 -61.5z" />
    <glyph glyph-name="uni24CA" unicode="U&#x20dd;" 
d="M840 462q72 0 115 41t43 115v443h130v-454q0 -114 -78.5 -183t-209.5 -69t-209.5 69t-78.5 183v454h130v-443q0 -74 43 -115t115 -41zM840 78q176 0 322 86t229.5 233.5t83.5 322.5t-83.5 322.5t-229.5 233.5t-322 86t-322 -86t-229.5 -233.5t-83.5 -322.5t83.5 -322.5
t229.5 -233.5t322 -86zM840 -50q-156 0 -299 61.5t-246 164.5t-164.5 246t-61.5 299t61.5 299t164.5 246t246 164.5t299 61.5t299 -61.5t246 -164.5t164.5 -246t61.5 -299t-61.5 -299t-164.5 -246t-246 -164.5t-299 -61.5z" />
    <glyph glyph-name="uni24CB" unicode="V&#x20dd;" 
d="M762 368l-250 693h151l174 -555h6l174 555h151l-250 -693h-156zM840 78q176 0 322 86t229.5 233.5t83.5 322.5t-83.5 322.5t-229.5 233.5t-322 86t-322 -86t-229.5 -233.5t-83.5 -322.5t83.5 -322.5t229.5 -233.5t322 -86zM840 -50q-156 0 -299 61.5t-246 164.5
t-164.5 246t-61.5 299t61.5 299t164.5 246t246 164.5t299 61.5t299 -61.5t246 -164.5t164.5 -246t61.5 -299t-61.5 -299t-164.5 -246t-246 -164.5t-299 -61.5z" />
    <glyph glyph-name="uni24CC" unicode="W&#x20dd;" 
d="M838 869l-140 -501h-119l-195 693h143l117 -518h6l133 518h114l133 -518h6l117 518h143l-195 -693h-119l-140 501h-4zM840 78q176 0 322 86t229.5 233.5t83.5 322.5t-83.5 322.5t-229.5 233.5t-322 86t-322 -86t-229.5 -233.5t-83.5 -322.5t83.5 -322.5t229.5 -233.5
t322 -86zM840 -50q-156 0 -299 61.5t-246 164.5t-164.5 246t-61.5 299t61.5 299t164.5 246t246 164.5t299 61.5t299 -61.5t246 -164.5t164.5 -246t61.5 -299t-61.5 -299t-164.5 -246t-246 -164.5t-299 -61.5z" />
    <glyph glyph-name="uni24CD" unicode="X&#x20dd;" 
d="M1154 1081l-233 -348l230 -345h-152l-161 253h-6l-163 -253h-143l229 349l-227 344h155l159 -256h6l158 256h148zM840 78q176 0 322 86t229.5 233.5t83.5 322.5t-83.5 322.5t-229.5 233.5t-322 86t-322 -86t-229.5 -233.5t-83.5 -322.5t83.5 -322.5t229.5 -233.5t322 -86
zM840 -50q-156 0 -299 61.5t-246 164.5t-164.5 246t-61.5 299t61.5 299t164.5 246t246 164.5t299 61.5t299 -61.5t246 -164.5t164.5 -246t61.5 -299t-61.5 -299t-164.5 -246t-246 -164.5t-299 -61.5z" />
    <glyph glyph-name="uni24CE" unicode="Y&#x20dd;" 
d="M906 383h-131v273l-243 420h145l162 -297h5l162 297h142l-242 -418v-275zM840 78q176 0 322 86t229.5 233.5t83.5 322.5t-83.5 322.5t-229.5 233.5t-322 86t-322 -86t-229.5 -233.5t-83.5 -322.5t83.5 -322.5t229.5 -233.5t322 -86zM840 -50q-156 0 -299 61.5t-246 164.5
t-164.5 246t-61.5 299t61.5 299t164.5 246t246 164.5t299 61.5t299 -61.5t246 -164.5t164.5 -246t61.5 -299t-61.5 -299t-164.5 -246t-246 -164.5t-299 -61.5z" />
    <glyph glyph-name="uni24CF" unicode="Z&#x20dd;" 
d="M575 388v83l361 499v7h-350v104h509v-83l-360 -499v-7h370v-104h-530zM840 78q176 0 322 86t229.5 233.5t83.5 322.5t-83.5 322.5t-229.5 233.5t-322 86t-322 -86t-229.5 -233.5t-83.5 -322.5t83.5 -322.5t229.5 -233.5t322 -86zM840 -50q-156 0 -299 61.5t-246 164.5
t-164.5 246t-61.5 299t61.5 299t164.5 246t246 164.5t299 61.5t299 -61.5t246 -164.5t164.5 -246t61.5 -299t-61.5 -299t-164.5 -246t-246 -164.5t-299 -61.5z" />
    <glyph glyph-name="uni24EA" unicode="&#x23;&#x20dd;" 
d="M840 486q67 0 105.5 65.5t38.5 183.5t-38.5 183.5t-105.5 65.5t-105.5 -65.5t-38.5 -183.5t38.5 -183.5t105.5 -65.5zM840 376q-120 0 -194 95.5t-74 263.5t74 263.5t194 95.5t194 -95.5t74 -263.5t-74 -263.5t-194 -95.5zM840 78q176 0 322 86t229.5 233.5t83.5 322.5
t-83.5 322.5t-229.5 233.5t-322 86t-322 -86t-229.5 -233.5t-83.5 -322.5t83.5 -322.5t229.5 -233.5t322 -86zM840 -50q-156 0 -299 61.5t-246 164.5t-164.5 246t-61.5 299t61.5 299t164.5 246t246 164.5t299 61.5t299 -61.5t246 -164.5t164.5 -246t61.5 -299t-61.5 -299
t-164.5 -246t-246 -164.5t-299 -61.5z" />
    <glyph glyph-name="uni24FF" unicode="&#x30;&#x20dd;&#x25cf;" 
d="M836 461q-70 0 -109 71t-39 203t39 203t109 71t109 -71t39 -203t-39 -203t-109 -71zM836 338q138 0 220 106.5t82 290.5t-82 290.5t-220 106.5t-220 -106.5t-82 -290.5t82 -290.5t220 -106.5zM840 -50q-156 0 -299 61.5t-246 164.5t-164.5 246t-61.5 299t61.5 299
t164.5 246t246 164.5t299 61.5t299 -61.5t246 -164.5t164.5 -246t61.5 -299t-61.5 -299t-164.5 -246t-246 -164.5t-299 -61.5z" />
    <glyph glyph-name="uni278A" unicode="&#x31;&#x20dd;&#x25cf;" 
d="M953 353v765h-148l-191 -132v-140l187 128h1v-621h151zM840 -50q-156 0 -299 61.5t-246 164.5t-164.5 246t-61.5 299t61.5 299t164.5 246t246 164.5t299 61.5t299 -61.5t246 -164.5t164.5 -246t61.5 -299t-61.5 -299t-164.5 -246t-246 -164.5t-299 -61.5z" />
    <glyph glyph-name="uni278B" unicode="&#x32;&#x20dd;&#x25cf;" 
d="M712 886v11q0 48 32.5 81.5t89.5 33.5q51 0 85 -30.5t34 -76.5q0 -30 -14.5 -60.5t-30 -49t-43.5 -46.5l-293 -306v-91h546v122h-342l203 212q33 36 48.5 54t37 49t30.5 61.5t9 65.5q0 93 -74 154t-194 61q-129 0 -199.5 -69.5t-70.5 -164.5v-11h146zM840 -50
q-156 0 -299 61.5t-246 164.5t-164.5 246t-61.5 299t61.5 299t164.5 246t246 164.5t299 61.5t299 -61.5t246 -164.5t164.5 -246t61.5 -299t-61.5 -299t-164.5 -246t-246 -164.5t-299 -61.5z" />
    <glyph glyph-name="uni278C" unicode="&#x33;&#x20dd;&#x25cf;" 
d="M744 688h93q63 0 101.5 -32t39.5 -83q0 -52 -40 -84.5t-106 -32.5q-59 1 -99 28.5t-45 69.5h-140q4 -92 79.5 -154t203.5 -62q129 0 215 63t85 168q-3 83 -54.5 130.5t-114.5 54.5q53 11 99 59t45 120q-2 88 -76 144t-194 56q-125 -1 -197 -62t-75 -153h144
q2 40 36.5 68.5t87.5 28.5q54 0 88.5 -28.5t35.5 -74.5q0 -46 -35 -76t-89 -30h-88v-118zM840 -50q-156 0 -299 61.5t-246 164.5t-164.5 246t-61.5 299t61.5 299t164.5 246t246 164.5t299 61.5t299 -61.5t246 -164.5t164.5 -246t61.5 -299t-61.5 -299t-164.5 -246
t-246 -164.5t-299 -61.5z" />
    <glyph glyph-name="uni278D" unicode="&#x34;&#x20dd;&#x25cf;" 
d="M808 1118q-244 -380 -314 -503v-117h383v-145h145v145h100v120h-100v500h-214zM636 618v1q77 134 241 380v-381h-241zM840 -50q-156 0 -299 61.5t-246 164.5t-164.5 246t-61.5 299t61.5 299t164.5 246t246 164.5t299 61.5t299 -61.5t246 -164.5t164.5 -246t61.5 -299
t-61.5 -299t-164.5 -246t-246 -164.5t-299 -61.5z" />
    <glyph glyph-name="uni278E" unicode="&#x35;&#x20dd;&#x25cf;" 
d="M559 552q5 -93 81.5 -153t197.5 -60q133 0 216 75t83 197q0 114 -75 181.5t-184 67.5q-57 0 -98.5 -19.5t-61.5 -43.5l17 201h359v120h-483l-35 -448h131q16 29 51 51.5t84 22.5q61 0 103.5 -38t42.5 -100q0 -68 -43 -108t-101 -40q-53 0 -93.5 24.5t-49.5 69.5h-142z
M840 -50q-156 0 -299 61.5t-246 164.5t-164.5 246t-61.5 299t61.5 299t164.5 246t246 164.5t299 61.5t299 -61.5t246 -164.5t164.5 -246t61.5 -299t-61.5 -299t-164.5 -246t-246 -164.5t-299 -61.5z" />
    <glyph glyph-name="uni278F" unicode="&#x36;&#x20dd;&#x25cf;" 
d="M1129 607q0 115 -75 180.5t-178 65.5q-78 0 -127.5 -31t-71.5 -77l-2 -3q-1 125 45.5 197.5t125.5 72.5q50 0 81 -22t40 -51h146q-4 75 -75 134t-189 59q-148 0 -233 -106t-85 -313q0 -162 61 -253q41 -61 106 -91.5t140 -30.5q129 0 210 71.5t81 197.5zM695 601
q0 61 40.5 99.5t104.5 38.5q59 0 100.5 -36.5t41.5 -102.5q0 -69 -40 -106t-102 -37t-103.5 39t-41.5 105zM840 -50q-156 0 -299 61.5t-246 164.5t-164.5 246t-61.5 299t61.5 299t164.5 246t246 164.5t299 61.5t299 -61.5t246 -164.5t164.5 -246t61.5 -299t-61.5 -299
t-164.5 -246t-246 -164.5t-299 -61.5z" />
    <glyph glyph-name="uni2790" unicode="&#x37;&#x20dd;&#x25cf;" 
d="M581 1108v-123h392v-1l-332 -641h159l325 645v120h-544zM840 -50q-156 0 -299 61.5t-246 164.5t-164.5 246t-61.5 299t61.5 299t164.5 246t246 164.5t299 61.5t299 -61.5t246 -164.5t164.5 -246t61.5 -299t-61.5 -299t-164.5 -246t-246 -164.5t-299 -61.5z" />
    <glyph glyph-name="uni2791" unicode="&#x38;&#x20dd;&#x25cf;" 
d="M836 805q-56 0 -90.5 30t-34.5 78t34.5 78t90.5 30t90.5 -30t34.5 -78t-34.5 -78t-90.5 -30zM836 449q-67 0 -110.5 35.5t-43.5 88.5q0 54 43.5 89.5t110.5 35.5t110.5 -35.5t43.5 -89.5q0 -53 -43.5 -88.5t-110.5 -35.5zM836 338q136 0 220 62.5t84 164.5
q0 70 -44 121.5t-119 67.5q62 21 96.5 66.5t34.5 107.5q0 91 -75.5 148t-196.5 57t-196.5 -57t-75.5 -148q0 -62 34.5 -107.5t96.5 -66.5q-75 -16 -119 -67.5t-44 -121.5q0 -102 84 -164.5t220 -62.5zM840 -50q-156 0 -299 61.5t-246 164.5t-164.5 246t-61.5 299t61.5 299
t164.5 246t246 164.5t299 61.5t299 -61.5t246 -164.5t164.5 -246t61.5 -299t-61.5 -299t-164.5 -246t-246 -164.5t-299 -61.5z" />
    <glyph glyph-name="uni2792" unicode="&#x39;&#x20dd;&#x25cf;" 
d="M975 868q0 -66 -41.5 -102.5t-101.5 -36.5t-101 37.5t-41 104.5q0 66 40.5 105t100.5 39q63 0 103.5 -39.5t40.5 -107.5zM562 523q7 -75 75 -129.5t185 -54.5q158 0 238 103.5t80 305.5q0 108 -24.5 186t-69 120t-96 60.5t-114.5 18.5q-129 0 -211 -71t-82 -192
q0 -119 75 -188t185 -69q73 0 122 29.5t70 76.5q2 -116 -40.5 -188.5t-130.5 -72.5q-45 0 -76.5 19.5t-39.5 45.5h-146zM840 -50q-156 0 -299 61.5t-246 164.5t-164.5 246t-61.5 299t61.5 299t164.5 246t246 164.5t299 61.5t299 -61.5t246 -164.5t164.5 -246t61.5 -299
t-61.5 -299t-164.5 -246t-246 -164.5t-299 -61.5z" />
    <glyph glyph-name="uni1F130" unicode="A&#x20de;" 
d="M740 668h200l-95 287h-10zM650 388h-132l248 693h148l248 -693h-132l-62 186h-256zM356 1464h968q107 0 182.5 -74.5t75.5 -179.5v-976q0 -105 -75.5 -179.5t-182.5 -74.5h-968q-107 0 -182.5 74.5t-75.5 179.5v976q0 105 75.5 179.5t182.5 74.5zM1453 1208
q0 56 -42.5 97t-100.5 41h-940q-58 0 -100.5 -40.5t-42.5 -97.5v-972q0 -56 42.5 -97t100.5 -41h940q58 0 100.5 41t42.5 97v972z" />
    <glyph glyph-name="uni1F131" unicode="B&#x20de;" 
d="M603 388v693h294q97 0 154 -46t57 -125q0 -60 -33 -99t-89 -53v-5q71 -8 116 -52t45 -118q0 -91 -69.5 -143t-183.5 -52h-291zM732 984v-194h98q150 0 150 99q0 44 -29.5 69.5t-81.5 25.5h-137zM732 700v-215h111q90 0 130.5 25.5t40.5 78.5q0 52 -35.5 81.5t-100.5 29.5
h-146zM356 1464h968q107 0 182.5 -74.5t75.5 -179.5v-976q0 -105 -75.5 -179.5t-182.5 -74.5h-968q-107 0 -182.5 74.5t-75.5 179.5v976q0 105 75.5 179.5t182.5 74.5zM1453 1208q0 56 -42.5 97t-100.5 41h-940q-58 0 -100.5 -40.5t-42.5 -97.5v-972q0 -56 42.5 -97
t100.5 -41h940q58 0 100.5 41t42.5 97v972z" />
    <glyph glyph-name="uni1F132" unicode="C&#x20de;" 
d="M1008 606h132q-16 -105 -98 -168t-204 -63q-145 0 -234.5 99t-89.5 260t89.5 260.5t234.5 99.5q125 0 207.5 -65.5t96.5 -174.5h-130q-8 59 -56.5 97t-115.5 38q-88 0 -141 -70t-53 -185t53 -184.5t141 -69.5q65 0 112.5 35.5t55.5 90.5zM356 1464h968q107 0 182.5 -74.5
t75.5 -179.5v-976q0 -105 -75.5 -179.5t-182.5 -74.5h-968q-107 0 -182.5 74.5t-75.5 179.5v976q0 105 75.5 179.5t182.5 74.5zM1453 1208q0 56 -42.5 97t-100.5 41h-940q-58 0 -100.5 -40.5t-42.5 -97.5v-972q0 -56 42.5 -97t100.5 -41h940q58 0 100.5 41t42.5 97v972z" />
    <glyph glyph-name="uni1F133" unicode="D&#x20de;" 
d="M573 1081h256q161 0 242 -88.5t81 -256.5t-81 -258t-242 -90h-256v693zM703 978v-487h110q205 0 205 243q0 244 -205 244h-110zM356 1464h968q107 0 182.5 -74.5t75.5 -179.5v-976q0 -105 -75.5 -179.5t-182.5 -74.5h-968q-107 0 -182.5 74.5t-75.5 179.5v976
q0 105 75.5 179.5t182.5 74.5zM1453 1208q0 56 -42.5 97t-100.5 41h-940q-58 0 -100.5 -40.5t-42.5 -97.5v-972q0 -56 42.5 -97t100.5 -41h940q58 0 100.5 41t42.5 97v972z" />
    <glyph glyph-name="uni1F134" unicode="E&#x20de;" 
d="M1075 491v-103h-459v693h459v-103h-330v-190h311v-98h-311v-199h330zM356 1464h968q107 0 182.5 -74.5t75.5 -179.5v-976q0 -105 -75.5 -179.5t-182.5 -74.5h-968q-107 0 -182.5 74.5t-75.5 179.5v976q0 105 75.5 179.5t182.5 74.5zM1453 1208q0 56 -42.5 97t-100.5 41
h-940q-58 0 -100.5 -40.5t-42.5 -97.5v-972q0 -56 42.5 -97t100.5 -41h940q58 0 100.5 41t42.5 97v972z" />
    <glyph glyph-name="uni1F135" unicode="F&#x20de;" 
d="M778 388h-131v693h454v-104h-323v-205h295v-102h-295v-282zM356 1464h968q107 0 182.5 -74.5t75.5 -179.5v-976q0 -105 -75.5 -179.5t-182.5 -74.5h-968q-107 0 -182.5 74.5t-75.5 179.5v976q0 105 75.5 179.5t182.5 74.5zM1453 1208q0 56 -42.5 97t-100.5 41h-940
q-58 0 -100.5 -40.5t-42.5 -97.5v-972q0 -56 42.5 -97t100.5 -41h940q58 0 100.5 41t42.5 97v972z" />
    <glyph glyph-name="uni1F136" unicode="G&#x20de;" 
d="M1011 604v57h-160v95h284v-122q0 -117 -76.5 -188t-218.5 -71q-146 0 -236 99.5t-90 259.5q0 161 90.5 260.5t235.5 99.5q122 0 204 -63t96 -167h-130q-8 54 -56 89.5t-112 35.5q-89 0 -142.5 -69.5t-53.5 -185.5t53.5 -185t142.5 -69q81 0 125 34t44 90zM356 1464h968
q107 0 182.5 -74.5t75.5 -179.5v-976q0 -105 -75.5 -179.5t-182.5 -74.5h-968q-107 0 -182.5 74.5t-75.5 179.5v976q0 105 75.5 179.5t182.5 74.5zM1453 1208q0 56 -42.5 97t-100.5 41h-940q-58 0 -100.5 -40.5t-42.5 -97.5v-972q0 -56 42.5 -97t100.5 -41h940
q58 0 100.5 41t42.5 97v972z" />
    <glyph glyph-name="uni1F137" unicode="H&#x20de;" 
d="M1131 388h-130v304h-321v-304h-130v693h130v-286h321v286h130v-693zM356 1464h968q107 0 182.5 -74.5t75.5 -179.5v-976q0 -105 -75.5 -179.5t-182.5 -74.5h-968q-107 0 -182.5 74.5t-75.5 179.5v976q0 105 75.5 179.5t182.5 74.5zM1453 1208q0 56 -42.5 97t-100.5 41
h-940q-58 0 -100.5 -40.5t-42.5 -97.5v-972q0 -56 42.5 -97t100.5 -41h940q58 0 100.5 41t42.5 97v972z" />
    <glyph glyph-name="uni1F138" unicode="I&#x20de;" 
d="M906 388h-132v693h132v-693zM356 1464h968q107 0 182.5 -74.5t75.5 -179.5v-976q0 -105 -75.5 -179.5t-182.5 -74.5h-968q-107 0 -182.5 74.5t-75.5 179.5v976q0 105 75.5 179.5t182.5 74.5zM1453 1208q0 56 -42.5 97t-100.5 41h-940q-58 0 -100.5 -40.5t-42.5 -97.5
v-972q0 -56 42.5 -97t100.5 -41h940q58 0 100.5 41t42.5 97v972z" />
    <glyph glyph-name="uni1F139" unicode="J&#x20de;" 
d="M576 576h126q1 -41 28.5 -66t71.5 -25q53 0 80 30t27 85v481h130v-477q0 -110 -62.5 -169.5t-173.5 -59.5q-107 0 -167 57t-60 144zM356 1464h968q107 0 182.5 -74.5t75.5 -179.5v-976q0 -105 -75.5 -179.5t-182.5 -74.5h-968q-107 0 -182.5 74.5t-75.5 179.5v976
q0 105 75.5 179.5t182.5 74.5zM1453 1208q0 56 -42.5 97t-100.5 41h-940q-58 0 -100.5 -40.5t-42.5 -97.5v-972q0 -56 42.5 -97t100.5 -41h940q58 0 100.5 41t42.5 97v972z" />
    <glyph glyph-name="uni1F13A" unicode="K&#x20de;" 
d="M1155 1081l-263 -297l274 -396h-158l-212 312l-78 -84v-228h-130v693h130v-317h5l287 317h145zM356 1464h968q107 0 182.5 -74.5t75.5 -179.5v-976q0 -105 -75.5 -179.5t-182.5 -74.5h-968q-107 0 -182.5 74.5t-75.5 179.5v976q0 105 75.5 179.5t182.5 74.5zM1453 1208
q0 56 -42.5 97t-100.5 41h-940q-58 0 -100.5 -40.5t-42.5 -97.5v-972q0 -56 42.5 -97t100.5 -41h940q58 0 100.5 41t42.5 97v972z" />
    <glyph glyph-name="uni1F13B" unicode="L&#x20de;" 
d="M1118 495v-107h-446v693h131v-586h315zM356 1464h968q107 0 182.5 -74.5t75.5 -179.5v-976q0 -105 -75.5 -179.5t-182.5 -74.5h-968q-107 0 -182.5 74.5t-75.5 179.5v976q0 105 75.5 179.5t182.5 74.5zM1453 1208q0 56 -42.5 97t-100.5 41h-940q-58 0 -100.5 -40.5
t-42.5 -97.5v-972q0 -56 42.5 -97t100.5 -41h940q58 0 100.5 41t42.5 97v972z" />
    <glyph glyph-name="uni1F13C" unicode="M&#x20de;" 
d="M608 388h-117v693h132l216 -533h4l216 533h130v-693h-117v473h-6l-180 -453h-91l-181 453h-6v-473zM356 1464h968q107 0 182.5 -74.5t75.5 -179.5v-976q0 -105 -75.5 -179.5t-182.5 -74.5h-968q-107 0 -182.5 74.5t-75.5 179.5v976q0 105 75.5 179.5t182.5 74.5z
M1453 1208q0 56 -42.5 97t-100.5 41h-940q-58 0 -100.5 -40.5t-42.5 -97.5v-972q0 -56 42.5 -97t100.5 -41h940q58 0 100.5 41t42.5 97v972z" />
    <glyph glyph-name="uni1F13D" unicode="N&#x20de;" 
d="M678 388h-124v693h111l331 -482h6v482h124v-693h-111l-332 484h-5v-484zM356 1464h968q107 0 182.5 -74.5t75.5 -179.5v-976q0 -105 -75.5 -179.5t-182.5 -74.5h-968q-107 0 -182.5 74.5t-75.5 179.5v976q0 105 75.5 179.5t182.5 74.5zM1453 1208q0 56 -42.5 97
t-100.5 41h-940q-58 0 -100.5 -40.5t-42.5 -97.5v-972q0 -56 42.5 -97t100.5 -41h940q58 0 100.5 41t42.5 97v972z" />
    <glyph glyph-name="uni1F13E" unicode="O&#x20de;" 
d="M840 480q84 0 139 67.5t55 186.5q0 120 -55 187.5t-139 67.5t-139 -67.5t-55 -187.5q0 -119 55 -186.5t139 -67.5zM840 375q-140 0 -233 96.5t-93 262.5q0 167 93 263.5t233 96.5t233 -96.5t93 -263.5q0 -166 -93 -262.5t-233 -96.5zM356 1464h968q107 0 182.5 -74.5
t75.5 -179.5v-976q0 -105 -75.5 -179.5t-182.5 -74.5h-968q-107 0 -182.5 74.5t-75.5 179.5v976q0 105 75.5 179.5t182.5 74.5zM1453 1208q0 56 -42.5 97t-100.5 41h-940q-58 0 -100.5 -40.5t-42.5 -97.5v-972q0 -56 42.5 -97t100.5 -41h940q58 0 100.5 41t42.5 97v972z" />
    <glyph glyph-name="uni1F13F" unicode="P&#x20de;" 
d="M902 1081q112 0 177 -64t65 -163q0 -100 -65 -162.5t-178 -62.5h-153v-241h-129v693h283zM1011 854q0 60 -34.5 93t-96.5 33h-132v-251h132q62 0 96.5 32.5t34.5 92.5zM356 1464h968q107 0 182.5 -74.5t75.5 -179.5v-976q0 -105 -75.5 -179.5t-182.5 -74.5h-968
q-107 0 -182.5 74.5t-75.5 179.5v976q0 105 75.5 179.5t182.5 74.5zM1453 1208q0 56 -42.5 97t-100.5 41h-940q-58 0 -100.5 -40.5t-42.5 -97.5v-972q0 -56 42.5 -97t100.5 -41h940q58 0 100.5 41t42.5 97v972z" />
    <glyph glyph-name="uni1F140" unicode="Q&#x20de;" 
d="M1140 319h-128l-56 76q-55 -20 -116 -20q-140 0 -233 96.5t-93 262.5q0 167 93 263.5t233 96.5t233 -96.5t93 -263.5q0 -188 -120 -288zM840 480q28 0 49 7l-84 115h126l44 -60q59 70 59 192q0 120 -55 187.5t-139 67.5t-139 -67.5t-55 -187.5q0 -119 55 -186.5
t139 -67.5zM356 1464h968q107 0 182.5 -74.5t75.5 -179.5v-976q0 -105 -75.5 -179.5t-182.5 -74.5h-968q-107 0 -182.5 74.5t-75.5 179.5v976q0 105 75.5 179.5t182.5 74.5zM1453 1208q0 56 -42.5 97t-100.5 41h-940q-58 0 -100.5 -40.5t-42.5 -97.5v-972q0 -56 42.5 -97
t100.5 -41h940q58 0 100.5 41t42.5 97v972z" />
    <glyph glyph-name="uni1F141" unicode="R&#x20de;" 
d="M874 1081q116 0 182.5 -58.5t66.5 -157.5q0 -71 -38 -122t-95 -72l146 -283h-146l-128 263h-142v-263h-128v693h282zM720 747h132q65 0 101 29t36 85q0 57 -36 88.5t-97 31.5h-136v-234zM356 1464h968q107 0 182.5 -74.5t75.5 -179.5v-976q0 -105 -75.5 -179.5
t-182.5 -74.5h-968q-107 0 -182.5 74.5t-75.5 179.5v976q0 105 75.5 179.5t182.5 74.5zM1453 1208q0 56 -42.5 97t-100.5 41h-940q-58 0 -100.5 -40.5t-42.5 -97.5v-972q0 -56 42.5 -97t100.5 -41h940q58 0 100.5 41t42.5 97v972z" />
    <glyph glyph-name="uni1F142" unicode="S&#x20de;" 
d="M560 582h127q5 -48 48 -77.5t110 -29.5t106.5 28t39.5 75q0 36 -27 58.5t-88 37.5l-117 26q-180 42 -180 189q0 92 73.5 149t192.5 57q116 0 190 -56t75 -147h-124q-4 47 -42.5 75.5t-99.5 28.5q-60 0 -97 -28t-37 -72q0 -65 100 -87l117 -26q99 -23 146 -70t47 -124
q0 -99 -76 -156.5t-207 -57.5q-125 0 -200 56t-77 151zM356 1464h968q107 0 182.5 -74.5t75.5 -179.5v-976q0 -105 -75.5 -179.5t-182.5 -74.5h-968q-107 0 -182.5 74.5t-75.5 179.5v976q0 105 75.5 179.5t182.5 74.5zM1453 1208q0 56 -42.5 97t-100.5 41h-940
q-58 0 -100.5 -40.5t-42.5 -97.5v-972q0 -56 42.5 -97t100.5 -41h940q58 0 100.5 41t42.5 97v972z" />
    <glyph glyph-name="uni1F143" unicode="T&#x20de;" 
d="M906 388h-132v588h-210v105h552v-105h-210v-588zM356 1464h968q107 0 182.5 -74.5t75.5 -179.5v-976q0 -105 -75.5 -179.5t-182.5 -74.5h-968q-107 0 -182.5 74.5t-75.5 179.5v976q0 105 75.5 179.5t182.5 74.5zM1453 1208q0 56 -42.5 97t-100.5 41h-940
q-58 0 -100.5 -40.5t-42.5 -97.5v-972q0 -56 42.5 -97t100.5 -41h940q58 0 100.5 41t42.5 97v972z" />
    <glyph glyph-name="uni1F144" unicode="U&#x20de;" 
d="M840 482q72 0 115 41t43 115v443h130v-454q0 -114 -78.5 -183t-209.5 -69t-209.5 69t-78.5 183v454h130v-443q0 -74 43 -115t115 -41zM356 1464h968q107 0 182.5 -74.5t75.5 -179.5v-976q0 -105 -75.5 -179.5t-182.5 -74.5h-968q-107 0 -182.5 74.5t-75.5 179.5v976
q0 105 75.5 179.5t182.5 74.5zM1453 1208q0 56 -42.5 97t-100.5 41h-940q-58 0 -100.5 -40.5t-42.5 -97.5v-972q0 -56 42.5 -97t100.5 -41h940q58 0 100.5 41t42.5 97v972z" />
    <glyph glyph-name="uni1F145" unicode="V&#x20de;" 
d="M762 388l-250 693h151l174 -555h6l174 555h151l-250 -693h-156zM356 1464h968q107 0 182.5 -74.5t75.5 -179.5v-976q0 -105 -75.5 -179.5t-182.5 -74.5h-968q-107 0 -182.5 74.5t-75.5 179.5v976q0 105 75.5 179.5t182.5 74.5zM1453 1208q0 56 -42.5 97t-100.5 41h-940
q-58 0 -100.5 -40.5t-42.5 -97.5v-972q0 -56 42.5 -97t100.5 -41h940q58 0 100.5 41t42.5 97v972z" />
    <glyph glyph-name="uni1F146" unicode="W&#x20de;" 
d="M838 889l-140 -501h-119l-195 693h143l117 -518h6l133 518h114l133 -518h6l117 518h143l-195 -693h-119l-140 501h-4zM356 1464h968q107 0 182.5 -74.5t75.5 -179.5v-976q0 -105 -75.5 -179.5t-182.5 -74.5h-968q-107 0 -182.5 74.5t-75.5 179.5v976q0 105 75.5 179.5
t182.5 74.5zM1453 1208q0 56 -42.5 97t-100.5 41h-940q-58 0 -100.5 -40.5t-42.5 -97.5v-972q0 -56 42.5 -97t100.5 -41h940q58 0 100.5 41t42.5 97v972z" />
    <glyph glyph-name="uni1F147" unicode="X&#x20de;" 
d="M1154 1081l-233 -348l230 -345h-152l-161 253h-6l-163 -253h-143l229 349l-227 344h155l159 -256h6l158 256h148zM356 1464h968q107 0 182.5 -74.5t75.5 -179.5v-976q0 -105 -75.5 -179.5t-182.5 -74.5h-968q-107 0 -182.5 74.5t-75.5 179.5v976q0 105 75.5 179.5
t182.5 74.5zM1453 1208q0 56 -42.5 97t-100.5 41h-940q-58 0 -100.5 -40.5t-42.5 -97.5v-972q0 -56 42.5 -97t100.5 -41h940q58 0 100.5 41t42.5 97v972z" />
    <glyph glyph-name="uni1F148" unicode="Y&#x20de;" 
d="M906 388h-131v273l-243 420h145l162 -297h5l162 297h142l-242 -418v-275zM356 1464h968q107 0 182.5 -74.5t75.5 -179.5v-976q0 -105 -75.5 -179.5t-182.5 -74.5h-968q-107 0 -182.5 74.5t-75.5 179.5v976q0 105 75.5 179.5t182.5 74.5zM1453 1208q0 56 -42.5 97
t-100.5 41h-940q-58 0 -100.5 -40.5t-42.5 -97.5v-972q0 -56 42.5 -97t100.5 -41h940q58 0 100.5 41t42.5 97v972z" />
    <glyph glyph-name="uni1F149" unicode="Z&#x20de;" 
d="M575 388v83l361 499v7h-350v104h509v-83l-360 -499v-7h370v-104h-530zM356 1464h968q107 0 182.5 -74.5t75.5 -179.5v-976q0 -105 -75.5 -179.5t-182.5 -74.5h-968q-107 0 -182.5 74.5t-75.5 179.5v976q0 105 75.5 179.5t182.5 74.5zM1453 1208q0 56 -42.5 97t-100.5 41
h-940q-58 0 -100.5 -40.5t-42.5 -97.5v-972q0 -56 42.5 -97t100.5 -41h940q58 0 100.5 41t42.5 97v972z" />
    <glyph glyph-name="uni1F150" unicode="A&#x20dd;&#x25cf;" 
d="M941 690h-202l99 297h4zM638 374l67 202h270l67 -202h156l-273 766h-170l-273 -766h156zM840 -50q-156 0 -299 61.5t-246 164.5t-164.5 246t-61.5 299t61.5 299t164.5 246t246 164.5t299 61.5t299 -61.5t246 -164.5t164.5 -246t61.5 -299t-61.5 -299t-164.5 -246
t-246 -164.5t-299 -61.5z" />
    <glyph glyph-name="uni1F151" unicode="B&#x20dd;&#x25cf;" 
d="M569 354h323q130 0 206.5 59t76.5 159q0 76 -45 126.5t-124 62.5q60 18 93 62t33 106q0 88 -64 139.5t-173 51.5h-326v-766zM720 1005h145q54 0 85 -26.5t31 -72.5q0 -104 -158 -104h-103v203zM720 694h155q68 0 105.5 -30.5t37.5 -86.5t-43.5 -82t-137.5 -26h-117v225z
M840 -50q-156 0 -299 61.5t-246 164.5t-164.5 246t-61.5 299t61.5 299t164.5 246t246 164.5t299 61.5t299 -61.5t246 -164.5t164.5 -246t61.5 -299t-61.5 -299t-164.5 -246t-246 -164.5t-299 -61.5z" />
    <glyph glyph-name="uni1F152" unicode="C&#x20dd;&#x25cf;" 
d="M1015 593q-9 -51 -58.5 -86.5t-115.5 -35.5q-91 0 -146.5 72t-55.5 191t55.5 191.5t146.5 72.5q68 0 118.5 -38.5t59.5 -93.5h155q-15 120 -105.5 192.5t-229.5 72.5q-160 0 -258.5 -110t-98.5 -287t98.5 -286.5t258.5 -109.5q134 0 224.5 70t108.5 185h-157zM840 -50
q-156 0 -299 61.5t-246 164.5t-164.5 246t-61.5 299t61.5 299t164.5 246t246 164.5t299 61.5t299 -61.5t246 -164.5t164.5 -246t61.5 -299t-61.5 -299t-164.5 -246t-246 -164.5t-299 -61.5z" />
    <glyph glyph-name="uni1F153" unicode="D&#x20dd;&#x25cf;" 
d="M561 1120v-766h285q175 0 266 98t91 286t-90.5 285t-266.5 97h-285zM713 997h115q111 0 165 -64.5t54 -196.5t-54 -195.5t-165 -63.5h-115v520zM840 -50q-156 0 -299 61.5t-246 164.5t-164.5 246t-61.5 299t61.5 299t164.5 246t246 164.5t299 61.5t299 -61.5t246 -164.5
t164.5 -246t61.5 -299t-61.5 -299t-164.5 -246t-246 -164.5t-299 -61.5z" />
    <glyph glyph-name="uni1F154" unicode="E&#x20dd;&#x25cf;" 
d="M1099 477h-361v206h339v117h-339v197h361v123h-514v-766h514v123zM840 -50q-156 0 -299 61.5t-246 164.5t-164.5 246t-61.5 299t61.5 299t164.5 246t246 164.5t299 61.5t299 -61.5t246 -164.5t164.5 -246t61.5 -299t-61.5 -299t-164.5 -246t-246 -164.5t-299 -61.5z" />
    <glyph glyph-name="uni1F155" unicode="F&#x20dd;&#x25cf;" 
d="M770 354v307h324v123h-324v212h353v124h-505v-766h152zM840 -50q-156 0 -299 61.5t-246 164.5t-164.5 246t-61.5 299t61.5 299t164.5 246t246 164.5t299 61.5t299 -61.5t246 -164.5t164.5 -246t61.5 -299t-61.5 -299t-164.5 -246t-246 -164.5t-299 -61.5z" />
    <glyph glyph-name="uni1F156" unicode="G&#x20dd;&#x25cf;" 
d="M1017 620q0 -60 -46 -101t-128 -41q-93 0 -148 68.5t-55 187.5q0 120 55 188.5t148 68.5q72 0 119.5 -30t53.5 -74h157q-16 108 -107 175.5t-224 67.5q-161 0 -261 -109.5t-100 -286.5t99 -286t260 -109q148 0 237 86t89 215v134h-312v-127h163v-27zM840 -50
q-156 0 -299 61.5t-246 164.5t-164.5 246t-61.5 299t61.5 299t164.5 246t246 164.5t299 61.5t299 -61.5t246 -164.5t164.5 -246t61.5 -299t-61.5 -299t-164.5 -246t-246 -164.5t-299 -61.5z" />
    <glyph glyph-name="uni1F157" unicode="H&#x20dd;&#x25cf;" 
d="M1162 354v766h-151v-312h-341v312h-152v-766h152v330h341v-330h151zM840 -50q-156 0 -299 61.5t-246 164.5t-164.5 246t-61.5 299t61.5 299t164.5 246t246 164.5t299 61.5t299 -61.5t246 -164.5t164.5 -246t61.5 -299t-61.5 -299t-164.5 -246t-246 -164.5t-299 -61.5z
" />
    <glyph glyph-name="uni1F158" unicode="I&#x20dd;&#x25cf;" 
d="M916 354v766h-152v-766h152zM840 -50q-156 0 -299 61.5t-246 164.5t-164.5 246t-61.5 299t61.5 299t164.5 246t246 164.5t299 61.5t299 -61.5t246 -164.5t164.5 -246t61.5 -299t-61.5 -299t-164.5 -246t-246 -164.5t-299 -61.5z" />
    <glyph glyph-name="uni1F159" unicode="J&#x20dd;&#x25cf;" 
d="M546 570q0 -104 69.5 -167t184.5 -63q125 0 194 67t69 188v525h-153v-530q0 -119 -112 -119q-46 0 -74 27.5t-29 71.5h-149zM840 -50q-156 0 -299 61.5t-246 164.5t-164.5 246t-61.5 299t61.5 299t164.5 246t246 164.5t299 61.5t299 -61.5t246 -164.5t164.5 -246
t61.5 -299t-61.5 -299t-164.5 -246t-246 -164.5t-299 -61.5z" />
    <glyph glyph-name="uni1F15A" unicode="K&#x20dd;&#x25cf;" 
d="M1188 1120h-172l-311 -343v343h-152v-766h152v252l79 85l230 -337h185l-304 436zM840 -50q-156 0 -299 61.5t-246 164.5t-164.5 246t-61.5 299t61.5 299t164.5 246t246 164.5t299 61.5t299 -61.5t246 -164.5t164.5 -246t61.5 -299t-61.5 -299t-164.5 -246t-246 -164.5
t-299 -61.5z" />
    <glyph glyph-name="uni1F15B" unicode="L&#x20dd;&#x25cf;" 
d="M1130 481h-344v639h-153v-766h497v127zM840 -50q-156 0 -299 61.5t-246 164.5t-164.5 246t-61.5 299t61.5 299t164.5 246t246 164.5t299 61.5t299 -61.5t246 -164.5t164.5 -246t61.5 -299t-61.5 -299t-164.5 -246t-246 -164.5t-299 -61.5z" />
    <glyph glyph-name="uni1F15C" unicode="M&#x20dd;&#x25cf;" 
d="M591 354v521l196 -495h106l195 491v-517h139v766h-152l-236 -582l-233 582h-153v-766h138zM840 -50q-156 0 -299 61.5t-246 164.5t-164.5 246t-61.5 299t61.5 299t164.5 246t246 164.5t299 61.5t299 -61.5t246 -164.5t164.5 -246t61.5 -299t-61.5 -299t-164.5 -246
t-246 -164.5t-299 -61.5z" />
    <glyph glyph-name="uni1F15D" unicode="N&#x20dd;&#x25cf;" 
d="M668 354v523l359 -523h131v766h-146v-524l-361 524h-129v-766h146zM840 -50q-156 0 -299 61.5t-246 164.5t-164.5 246t-61.5 299t61.5 299t164.5 246t246 164.5t299 61.5t299 -61.5t246 -164.5t164.5 -246t61.5 -299t-61.5 -299t-164.5 -246t-246 -164.5t-299 -61.5z" />
    <glyph glyph-name="uni1F15E" unicode="O&#x20dd;&#x25cf;" 
d="M840 465q-89 0 -147.5 71.5t-58.5 197.5q0 127 58.5 198.5t147.5 71.5t147.5 -71.5t58.5 -198.5q0 -126 -58.5 -197.5t-147.5 -71.5zM840 338q155 0 257.5 106t102.5 290q0 185 -102.5 291t-257.5 106t-257.5 -106t-102.5 -291q0 -184 102.5 -290t257.5 -106zM840 -50
q-156 0 -299 61.5t-246 164.5t-164.5 246t-61.5 299t61.5 299t164.5 246t246 164.5t299 61.5t299 -61.5t246 -164.5t164.5 -246t61.5 -299t-61.5 -299t-164.5 -246t-246 -164.5t-299 -61.5z" />
    <glyph glyph-name="uni1F15F" unicode="P&#x20dd;&#x25cf;" 
d="M900 1120h-314v-766h152v263h161q122 0 197 68.5t75 181.5t-75 183t-196 70zM1015 867q0 -62 -36.5 -97t-101.5 -35h-139v264h139q66 0 102 -35t36 -97zM840 -50q-156 0 -299 61.5t-246 164.5t-164.5 246t-61.5 299t61.5 299t164.5 246t246 164.5t299 61.5t299 -61.5
t246 -164.5t164.5 -246t61.5 -299t-61.5 -299t-164.5 -246t-246 -164.5t-299 -61.5z" />
    <glyph glyph-name="uni1F160" unicode="Q&#x20dd;&#x25cf;" 
d="M1180 280l-106 142q126 110 126 312q0 185 -102.5 291t-257.5 106t-257.5 -106t-102.5 -291q0 -184 102.5 -290t257.5 -106q66 0 125 21l57 -79h158zM840 465q-89 0 -147.5 71.5t-58.5 197.5q0 127 58.5 198.5t147.5 71.5t147.5 -71.5t58.5 -198.5q0 -124 -58 -196
l-46 62h-152l94 -130q-23 -5 -44 -5zM840 -50q-156 0 -299 61.5t-246 164.5t-164.5 246t-61.5 299t61.5 299t164.5 246t246 164.5t299 61.5t299 -61.5t246 -164.5t164.5 -246t61.5 -299t-61.5 -299t-164.5 -246t-246 -164.5t-299 -61.5z" />
    <glyph glyph-name="uni1F161" unicode="R&#x20dd;&#x25cf;" 
d="M708 755v245h143q66 0 103.5 -33t37.5 -92q0 -57 -37.5 -88.5t-106.5 -31.5h-140zM871 1120h-313v-766h150v287h147l139 -287h173l-161 310q65 24 103.5 82t38.5 133q0 112 -74.5 176.5t-202.5 64.5zM840 -50q-156 0 -299 61.5t-246 164.5t-164.5 246t-61.5 299t61.5 299
t164.5 246t246 164.5t299 61.5t299 -61.5t246 -164.5t164.5 -246t61.5 -299t-61.5 -299t-164.5 -246t-246 -164.5t-299 -61.5z" />
    <glyph glyph-name="uni1F162" unicode="S&#x20dd;&#x25cf;" 
d="M529 576q3 -109 86 -173t222 -64q145 0 229.5 64t84.5 174q0 87 -52.5 139.5t-163.5 78.5l-127 28q-105 23 -105 90q0 47 38.5 75.5t102.5 28.5t105 -31t46 -82h145q-1 103 -83 167.5t-212 64.5q-131 0 -213 -64t-82 -167q0 -81 51.5 -135t148.5 -76l127 -30
q64 -14 93 -37t29 -61q0 -50 -41.5 -78.5t-112.5 -28.5t-116.5 32t-49.5 85h-150zM840 -50q-156 0 -299 61.5t-246 164.5t-164.5 246t-61.5 299t61.5 299t164.5 246t246 164.5t299 61.5t299 -61.5t246 -164.5t164.5 -246t61.5 -299t-61.5 -299t-164.5 -246t-246 -164.5
t-299 -61.5z" />
    <glyph glyph-name="uni1F163" unicode="T&#x20dd;&#x25cf;" 
d="M916 334v641h229v125h-610v-125h229v-641h152zM840 -50q-156 0 -299 61.5t-246 164.5t-164.5 246t-61.5 299t61.5 299t164.5 246t246 164.5t299 61.5t299 -61.5t246 -164.5t164.5 -246t61.5 -299t-61.5 -299t-164.5 -246t-246 -164.5t-299 -61.5z" />
    <glyph glyph-name="uni1F164" unicode="U&#x20dd;&#x25cf;" 
d="M840 448q-79 0 -123 43.5t-44 120.5v488h-153v-500q0 -127 87.5 -203.5t232.5 -76.5t232.5 77t87.5 203v500h-153v-488q0 -77 -44.5 -120.5t-122.5 -43.5zM840 -50q-156 0 -299 61.5t-246 164.5t-164.5 246t-61.5 299t61.5 299t164.5 246t246 164.5t299 61.5t299 -61.5
t246 -164.5t164.5 -246t61.5 -299t-61.5 -299t-164.5 -246t-246 -164.5t-299 -61.5z" />
    <glyph glyph-name="uni1F165" unicode="V&#x20dd;&#x25cf;" 
d="M926 334l277 766h-175l-186 -608h-4l-186 608h-175l277 -766h172zM840 -50q-156 0 -299 61.5t-246 164.5t-164.5 246t-61.5 299t61.5 299t164.5 246t246 164.5t299 61.5t299 -61.5t246 -164.5t164.5 -246t61.5 -299t-61.5 -299t-164.5 -246t-246 -164.5t-299 -61.5z" />
    <glyph glyph-name="uni1F166" unicode="W&#x20dd;&#x25cf;" 
d="M838 875h4l151 -541h139l216 766h-168l-122 -566h-4l-145 566h-138l-145 -566h-4l-122 566h-168l217 -766h138zM840 -50q-156 0 -299 61.5t-246 164.5t-164.5 246t-61.5 299t61.5 299t164.5 246t246 164.5t299 61.5t299 -61.5t246 -164.5t164.5 -246t61.5 -299
t-61.5 -299t-164.5 -246t-246 -164.5t-299 -61.5z" />
    <glyph glyph-name="uni1F167" unicode="X&#x20dd;&#x25cf;" 
d="M1192 1120h-174l-168 -279h-4l-173 279h-182l250 -380l-253 -386h170l175 275h3l175 -275h177l-254 381zM840 -50q-156 0 -299 61.5t-246 164.5t-164.5 246t-61.5 299t61.5 299t164.5 246t246 164.5t299 61.5t299 -61.5t246 -164.5t164.5 -246t61.5 -299t-61.5 -299
t-164.5 -246t-246 -164.5t-299 -61.5z" />
    <glyph glyph-name="uni1F168" unicode="Y&#x20dd;&#x25cf;" 
d="M764 349h152v302l271 464h-169l-176 -324h-4l-176 324h-169l271 -464v-302zM840 -50q-156 0 -299 61.5t-246 164.5t-164.5 246t-61.5 299t61.5 299t164.5 246t246 164.5t299 61.5t299 -61.5t246 -164.5t164.5 -246t61.5 -299t-61.5 -299t-164.5 -246t-246 -164.5
t-299 -61.5z" />
    <glyph glyph-name="uni1F169" unicode="Z&#x20dd;&#x25cf;" 
d="M545 354h590v124h-405l394 545v97h-567v-124h383v-1l-395 -544v-97zM840 -50q-156 0 -299 61.5t-246 164.5t-164.5 246t-61.5 299t61.5 299t164.5 246t246 164.5t299 61.5t299 -61.5t246 -164.5t164.5 -246t61.5 -299t-61.5 -299t-164.5 -246t-246 -164.5t-299 -61.5z
" />
    <glyph glyph-name="uni1F170" unicode="A&#x20de;&#x25a0;" 
d="M941 670h-202l99 297h4zM638 354l67 202h270l67 -202h156l-273 766h-170l-273 -766h156zM356 1464h968q107 0 182.5 -74.5t75.5 -179.5v-976q0 -105 -75.5 -179.5t-182.5 -74.5h-968q-107 0 -182.5 74.5t-75.5 179.5v976q0 105 75.5 179.5t182.5 74.5z" />
    <glyph glyph-name="uni1F171" unicode="B&#x20de;&#x25a0;" 
d="M569 354h323q127 0 205 58t78 160q0 79 -47 128t-122 61q58 17 92 60t34 108q0 89 -64.5 140t-172.5 51h-326v-766zM720 1005h145q54 0 85 -27t31 -72q0 -104 -158 -104h-103v203zM720 694h155q69 0 106 -31t37 -86t-43 -81.5t-138 -26.5h-117v225zM356 1464h968
q107 0 182.5 -74.5t75.5 -179.5v-976q0 -105 -75.5 -179.5t-182.5 -74.5h-968q-107 0 -182.5 74.5t-75.5 179.5v976q0 105 75.5 179.5t182.5 74.5z" />
    <glyph glyph-name="uni1F172" unicode="C&#x20de;&#x25a0;" 
d="M1015 593q-9 -51 -58.5 -86.5t-115.5 -35.5q-91 0 -146.5 72t-55.5 191t55.5 191.5t146.5 72.5q68 0 118.5 -38.5t59.5 -93.5h155q-15 120 -105.5 192.5t-229.5 72.5q-160 0 -258.5 -110t-98.5 -287t98.5 -286.5t258.5 -109.5q134 0 224.5 70t108.5 185h-157zM356 1464
h968q107 0 182.5 -74.5t75.5 -179.5v-976q0 -105 -75.5 -179.5t-182.5 -74.5h-968q-107 0 -182.5 74.5t-75.5 179.5v976q0 105 75.5 179.5t182.5 74.5z" />
    <glyph glyph-name="uni1F173" unicode="D&#x20de;&#x25a0;" 
d="M538 1120v-766h285q178 0 267.5 99t89.5 285t-89.5 284t-267.5 98h-285zM690 997h115q112 0 165.5 -65t53.5 -196t-53.5 -195t-165.5 -64h-115v520zM356 1464h968q107 0 182.5 -74.5t75.5 -179.5v-976q0 -105 -75.5 -179.5t-182.5 -74.5h-968q-107 0 -182.5 74.5
t-75.5 179.5v976q0 105 75.5 179.5t182.5 74.5z" />
    <glyph glyph-name="uni1F174" unicode="E&#x20de;&#x25a0;" 
d="M1099 477h-361v206h339v117h-339v197h361v123h-514v-766h514v123zM356 1464h968q107 0 182.5 -74.5t75.5 -179.5v-976q0 -105 -75.5 -179.5t-182.5 -74.5h-968q-107 0 -182.5 74.5t-75.5 179.5v976q0 105 75.5 179.5t182.5 74.5z" />
    <glyph glyph-name="uni1F175" unicode="F&#x20de;&#x25a0;" 
d="M770 354v307h324v123h-324v212h353v124h-505v-766h152zM356 1464h968q107 0 182.5 -74.5t75.5 -179.5v-976q0 -105 -75.5 -179.5t-182.5 -74.5h-968q-107 0 -182.5 74.5t-75.5 179.5v976q0 105 75.5 179.5t182.5 74.5z" />
    <glyph glyph-name="uni1F176" unicode="G&#x20de;&#x25a0;" 
d="M1017 620q0 -60 -46 -101t-128 -41q-93 0 -148 68.5t-55 187.5q0 120 55 188.5t148 68.5q72 0 119.5 -30t53.5 -74h157q-16 108 -107 175.5t-224 67.5q-161 0 -261 -109.5t-100 -286.5t99 -286t260 -109q148 0 237 86t89 215v134h-312v-127h163v-27zM356 1464h968
q107 0 182.5 -74.5t75.5 -179.5v-976q0 -105 -75.5 -179.5t-182.5 -74.5h-968q-107 0 -182.5 74.5t-75.5 179.5v976q0 105 75.5 179.5t182.5 74.5z" />
    <glyph glyph-name="uni1F177" unicode="H&#x20de;&#x25a0;" 
d="M1162 354v766h-151v-312h-341v312h-152v-766h152v330h341v-330h151zM356 1464h968q107 0 182.5 -74.5t75.5 -179.5v-976q0 -105 -75.5 -179.5t-182.5 -74.5h-968q-107 0 -182.5 74.5t-75.5 179.5v976q0 105 75.5 179.5t182.5 74.5z" />
    <glyph glyph-name="uni1F178" unicode="I&#x20de;&#x25a0;" 
d="M916 354v766h-152v-766h152zM356 1464h968q107 0 182.5 -74.5t75.5 -179.5v-976q0 -105 -75.5 -179.5t-182.5 -74.5h-968q-107 0 -182.5 74.5t-75.5 179.5v976q0 105 75.5 179.5t182.5 74.5z" />
    <glyph glyph-name="uni1F179" unicode="J&#x20de;&#x25a0;" 
d="M546 570q0 -100 67 -165t187 -65q124 0 193.5 66t69.5 189v525h-153v-530q0 -119 -112 -119q-46 0 -74 27.5t-29 71.5h-149zM356 1464h968q107 0 182.5 -74.5t75.5 -179.5v-976q0 -105 -75.5 -179.5t-182.5 -74.5h-968q-107 0 -182.5 74.5t-75.5 179.5v976
q0 105 75.5 179.5t182.5 74.5z" />
    <glyph glyph-name="uni1F17A" unicode="K&#x20de;&#x25a0;" 
d="M1188 1120h-172l-311 -343v343h-152v-766h152v252l79 85l230 -337h185q-44 64 -304 436zM356 1464h968q107 0 182.5 -74.5t75.5 -179.5v-976q0 -105 -75.5 -179.5t-182.5 -74.5h-968q-107 0 -182.5 74.5t-75.5 179.5v976q0 105 75.5 179.5t182.5 74.5z" />
    <glyph glyph-name="uni1F17B" unicode="L&#x20de;&#x25a0;" 
d="M1140 481h-344v639h-153v-766h497v127zM356 1464h968q107 0 182.5 -74.5t75.5 -179.5v-976q0 -105 -75.5 -179.5t-182.5 -74.5h-968q-107 0 -182.5 74.5t-75.5 179.5v976q0 105 75.5 179.5t182.5 74.5z" />
    <glyph glyph-name="uni1F17C" unicode="M&#x20de;&#x25a0;" 
d="M591 354v521l196 -495h106l195 491v-517h139v766h-152l-236 -582l-233 582h-153v-766h138zM356 1464h968q107 0 182.5 -74.5t75.5 -179.5v-976q0 -105 -75.5 -179.5t-182.5 -74.5h-968q-107 0 -182.5 74.5t-75.5 179.5v976q0 105 75.5 179.5t182.5 74.5z" />
    <glyph glyph-name="uni1F17D" unicode="N&#x20de;&#x25a0;" 
d="M668 354v523l359 -523h131v766h-146v-524l-361 524h-129v-766h146zM356 1464h968q107 0 182.5 -74.5t75.5 -179.5v-976q0 -105 -75.5 -179.5t-182.5 -74.5h-968q-107 0 -182.5 74.5t-75.5 179.5v976q0 105 75.5 179.5t182.5 74.5z" />
    <glyph glyph-name="uni1F17E" unicode="O&#x20de;&#x25a0;" 
d="M840 465q-89 0 -147.5 71.5t-58.5 197.5q0 127 58.5 198.5t147.5 71.5t147.5 -71.5t58.5 -198.5q0 -126 -58.5 -197.5t-147.5 -71.5zM840 338q155 0 257.5 106t102.5 290q0 185 -102.5 291t-257.5 106t-257.5 -106t-102.5 -291q0 -184 102.5 -290t257.5 -106zM356 1464
h968q107 0 182.5 -74.5t75.5 -179.5v-976q0 -105 -75.5 -179.5t-182.5 -74.5h-968q-107 0 -182.5 74.5t-75.5 179.5v976q0 105 75.5 179.5t182.5 74.5z" />
    <glyph glyph-name="uni1F17F" unicode="P&#x20de;&#x25a0;" 
d="M900 1120h-314v-766h152v263h161q125 0 198.5 70t73.5 180q0 111 -73 182t-198 71zM1015 867q0 -62 -36.5 -97t-101.5 -35h-139v264h139q66 0 102 -34.5t36 -97.5zM356 1464h968q107 0 182.5 -74.5t75.5 -179.5v-976q0 -105 -75.5 -179.5t-182.5 -74.5h-968
q-107 0 -182.5 74.5t-75.5 179.5v976q0 105 75.5 179.5t182.5 74.5z" />
    <glyph glyph-name="uni1F180" unicode="Q&#x20de;&#x25a0;" 
d="M1180 280l-106 142q126 110 126 312q0 185 -102.5 291t-257.5 106t-257.5 -106t-102.5 -291q0 -184 102.5 -290t257.5 -106q66 0 125 21l57 -79h158zM840 465q-89 0 -147.5 71.5t-58.5 197.5q0 127 58.5 198.5t147.5 71.5t147.5 -71.5t58.5 -198.5q0 -124 -58 -196
l-46 62h-152l94 -130q-23 -5 -44 -5zM356 1464h968q107 0 182.5 -74.5t75.5 -179.5v-976q0 -105 -75.5 -179.5t-182.5 -74.5h-968q-107 0 -182.5 74.5t-75.5 179.5v976q0 105 75.5 179.5t182.5 74.5z" />
    <glyph glyph-name="uni1F181" unicode="R&#x20de;&#x25a0;" 
d="M708 755v245h143q65 0 103 -32.5t38 -92.5q0 -58 -38 -89t-106 -31h-140zM871 1120h-313v-766h150v287h147l139 -287h173l-161 310q62 23 102 79.5t40 135.5q0 111 -73.5 176t-203.5 65zM356 1464h968q107 0 182.5 -74.5t75.5 -179.5v-976q0 -105 -75.5 -179.5
t-182.5 -74.5h-968q-107 0 -182.5 74.5t-75.5 179.5v976q0 105 75.5 179.5t182.5 74.5z" />
    <glyph glyph-name="uni1F182" unicode="S&#x20de;&#x25a0;" 
d="M529 576q3 -109 86 -173t222 -64q145 0 229.5 64t84.5 174q0 87 -52.5 139.5t-163.5 78.5l-127 28q-105 23 -105 90q0 47 38.5 75.5t102.5 28.5t105 -31t46 -82h145q-1 103 -83 167.5t-212 64.5q-131 0 -213 -64t-82 -167q0 -81 51.5 -135t148.5 -76l127 -30
q64 -14 93 -37t29 -61q0 -50 -41.5 -78.5t-112.5 -28.5t-116.5 32t-49.5 85h-150zM356 1464h968q107 0 182.5 -74.5t75.5 -179.5v-976q0 -105 -75.5 -179.5t-182.5 -74.5h-968q-107 0 -182.5 74.5t-75.5 179.5v976q0 105 75.5 179.5t182.5 74.5z" />
    <glyph glyph-name="uni1F183" unicode="T&#x20de;&#x25a0;" 
d="M916 354v641h229v125h-610v-125h229v-641h152zM356 1464h968q107 0 182.5 -74.5t75.5 -179.5v-976q0 -105 -75.5 -179.5t-182.5 -74.5h-968q-107 0 -182.5 74.5t-75.5 179.5v976q0 105 75.5 179.5t182.5 74.5z" />
    <glyph glyph-name="uni1F184" unicode="U&#x20de;&#x25a0;" 
d="M840 468q-79 0 -123 43.5t-44 120.5v488h-153v-500q0 -127 87.5 -203.5t232.5 -76.5t232.5 77t87.5 203v500h-153v-488q0 -77 -44.5 -120.5t-122.5 -43.5zM356 1464h968q107 0 182.5 -74.5t75.5 -179.5v-976q0 -105 -75.5 -179.5t-182.5 -74.5h-968q-107 0 -182.5 74.5
t-75.5 179.5v976q0 105 75.5 179.5t182.5 74.5z" />
    <glyph glyph-name="uni1F185" unicode="V&#x20de;&#x25a0;" 
d="M926 354l277 766h-175l-186 -608h-4l-186 608h-175l277 -766h172zM356 1464h968q107 0 182.5 -74.5t75.5 -179.5v-976q0 -105 -75.5 -179.5t-182.5 -74.5h-968q-107 0 -182.5 74.5t-75.5 179.5v976q0 105 75.5 179.5t182.5 74.5z" />
    <glyph glyph-name="uni1F186" unicode="W&#x20de;&#x25a0;" 
d="M838 895h4l151 -541h139l216 766h-168l-122 -566h-4l-145 566h-138l-145 -566h-4l-122 566h-168l217 -766h138zM356 1464h968q107 0 182.5 -74.5t75.5 -179.5v-976q0 -105 -75.5 -179.5t-182.5 -74.5h-968q-107 0 -182.5 74.5t-75.5 179.5v976q0 105 75.5 179.5
t182.5 74.5z" />
    <glyph glyph-name="uni1F187" unicode="X&#x20de;&#x25a0;" 
d="M1192 1120h-174l-168 -279h-4l-173 279h-182l250 -380l-253 -386h170l175 275h3l175 -275h177l-254 381zM356 1464h968q107 0 182.5 -74.5t75.5 -179.5v-976q0 -105 -75.5 -179.5t-182.5 -74.5h-968q-107 0 -182.5 74.5t-75.5 179.5v976q0 105 75.5 179.5t182.5 74.5z
" />
    <glyph glyph-name="uni1F188" unicode="Y&#x20de;&#x25a0;" 
d="M764 354h152v302l271 464h-169l-176 -324h-4l-176 324h-169l271 -464v-302zM356 1464h968q107 0 182.5 -74.5t75.5 -179.5v-976q0 -105 -75.5 -179.5t-182.5 -74.5h-968q-107 0 -182.5 74.5t-75.5 179.5v976q0 105 75.5 179.5t182.5 74.5z" />
    <glyph glyph-name="uni1F189" unicode="Z&#x20de;&#x25a0;" 
d="M545 354h590v124h-405l394 545v97h-567v-124h383v-1l-395 -544v-97zM356 1464h968q107 0 182.5 -74.5t75.5 -179.5v-976q0 -105 -75.5 -179.5t-182.5 -74.5h-968q-107 0 -182.5 74.5t-75.5 179.5v976q0 105 75.5 179.5t182.5 74.5z" />
    <glyph glyph-name="plus.uc.whitecircle" unicode="&#x2b;&#x20dd;" 
d="M894 682v-217h-108v217h-212v102h212v209h108v-209h212v-102h-212zM840 78q176 0 322 86t229.5 233.5t83.5 322.5t-83.5 322.5t-229.5 233.5t-322 86t-322 -86t-229.5 -233.5t-83.5 -322.5t83.5 -322.5t229.5 -233.5t322 -86zM840 -50q-156 0 -299 61.5t-246 164.5
t-164.5 246t-61.5 299t61.5 299t164.5 246t246 164.5t299 61.5t299 -61.5t246 -164.5t164.5 -246t61.5 -299t-61.5 -299t-164.5 -246t-246 -164.5t-299 -61.5z" />
    <glyph glyph-name="minus.uc.whitecircle" unicode="&#x2212;&#x20dd;" 
d="M1095 677h-510v104h510v-104zM840 78q176 0 322 86t229.5 233.5t83.5 322.5t-83.5 322.5t-229.5 233.5t-322 86t-322 -86t-229.5 -233.5t-83.5 -322.5t83.5 -322.5t229.5 -233.5t322 -86zM840 -50q-156 0 -299 61.5t-246 164.5t-164.5 246t-61.5 299t61.5 299t164.5 246
t246 164.5t299 61.5t299 -61.5t246 -164.5t164.5 -246t61.5 -299t-61.5 -299t-164.5 -246t-246 -164.5t-299 -61.5z" />
    <glyph glyph-name="multiply.uc.whitecircle" unicode="&#xd7;&#x20dd;" 
d="M840 802l163 156l77 -73l-163 -156l163 -156l-77 -73l-163 156l-163 -156l-77 73l163 156l-163 156l77 73zM840 78q176 0 322 86t229.5 233.5t83.5 322.5t-83.5 322.5t-229.5 233.5t-322 86t-322 -86t-229.5 -233.5t-83.5 -322.5t83.5 -322.5t229.5 -233.5t322 -86z
M840 -50q-156 0 -299 61.5t-246 164.5t-164.5 246t-61.5 299t61.5 299t164.5 246t246 164.5t299 61.5t299 -61.5t246 -164.5t164.5 -246t61.5 -299t-61.5 -299t-164.5 -246t-246 -164.5t-299 -61.5z" />
    <glyph glyph-name="divide.uc.whitecircle" unicode="&#xf7;&#x20dd;" 
d="M1095 683h-510v91h510v-91zM761 934q0 33 22.5 54.5t55.5 21.5q36 0 59 -21.5t23 -54.5q0 -31 -23.5 -52t-58.5 -21q-33 0 -55.5 21t-22.5 52zM761 527q0 33 22.5 54.5t56.5 21.5q35 0 58 -21.5t23 -54.5q0 -31 -23 -52t-58 -21q-34 0 -56.5 21t-22.5 52zM840 78
q176 0 322 86t229.5 233.5t83.5 322.5t-83.5 322.5t-229.5 233.5t-322 86t-322 -86t-229.5 -233.5t-83.5 -322.5t83.5 -322.5t229.5 -233.5t322 -86zM840 -50q-156 0 -299 61.5t-246 164.5t-164.5 246t-61.5 299t61.5 299t164.5 246t246 164.5t299 61.5t299 -61.5
t246 -164.5t164.5 -246t61.5 -299t-61.5 -299t-164.5 -246t-246 -164.5t-299 -61.5z" />
    <glyph glyph-name="equal.uc.whitecircle" unicode="&#x3d;&#x20dd;" 
d="M1081 567h-482v95h482v-95zM1081 795h-482v96h482v-96zM840 78q176 0 322 86t229.5 233.5t83.5 322.5t-83.5 322.5t-229.5 233.5t-322 86t-322 -86t-229.5 -233.5t-83.5 -322.5t83.5 -322.5t229.5 -233.5t322 -86zM840 -50q-156 0 -299 61.5t-246 164.5t-164.5 246
t-61.5 299t61.5 299t164.5 246t246 164.5t299 61.5t299 -61.5t246 -164.5t164.5 -246t61.5 -299t-61.5 -299t-164.5 -246t-246 -164.5t-299 -61.5z" />
    <glyph glyph-name="greater.uc.whitecircle" unicode="&#x3e;&#x20dd;" 
d="M1106 764v-84l-482 -246v122l337 167v5l-337 173v124zM840 78q176 0 322 86t229.5 233.5t83.5 322.5t-83.5 322.5t-229.5 233.5t-322 86t-322 -86t-229.5 -233.5t-83.5 -322.5t83.5 -322.5t229.5 -233.5t322 -86zM840 -50q-156 0 -299 61.5t-246 164.5t-164.5 246
t-61.5 299t61.5 299t164.5 246t246 164.5t299 61.5t299 -61.5t246 -164.5t164.5 -246t61.5 -299t-61.5 -299t-164.5 -246t-246 -164.5t-299 -61.5z" />
    <glyph glyph-name="less.uc.whitecircle" unicode="&#x3c;&#x20dd;" 
d="M575 680v84l481 261v-124l-338 -173v-5l338 -167v-122zM840 78q176 0 322 86t229.5 233.5t83.5 322.5t-83.5 322.5t-229.5 233.5t-322 86t-322 -86t-229.5 -233.5t-83.5 -322.5t83.5 -322.5t229.5 -233.5t322 -86zM840 -50q-156 0 -299 61.5t-246 164.5t-164.5 246
t-61.5 299t61.5 299t164.5 246t246 164.5t299 61.5t299 -61.5t246 -164.5t164.5 -246t61.5 -299t-61.5 -299t-164.5 -246t-246 -164.5t-299 -61.5z" />
    <glyph glyph-name="numbersign.whitecircle" unicode="&#x30;&#x20dd;" 
d="M1127 802h-112l-30 -139h107l-19 -90h-107l-40 -190h-98l41 190h-131l-40 -190h-98l40 190h-105l18 90h106l30 139h-101l18 90h103l38 184h97l-38 -184h130l39 184h97l-38 -184h111zM782 806l-33 -153h144l33 153h-144zM840 78q176 0 322 86t229.5 233.5t83.5 322.5
t-83.5 322.5t-229.5 233.5t-322 86t-322 -86t-229.5 -233.5t-83.5 -322.5t83.5 -322.5t229.5 -233.5t322 -86zM840 -50q-156 0 -299 61.5t-246 164.5t-164.5 246t-61.5 299t61.5 299t164.5 246t246 164.5t299 61.5t299 -61.5t246 -164.5t164.5 -246t61.5 -299t-61.5 -299
t-164.5 -246t-246 -164.5t-299 -61.5z" />
    <glyph glyph-name="uni25BC.whitecircle" unicode="&#x25bc;&#x20dd;" 
d="M1154 945l-314 -543l-313 543h627zM840 78q176 0 322 86t229.5 233.5t83.5 322.5t-83.5 322.5t-229.5 233.5t-322 86t-322 -86t-229.5 -233.5t-83.5 -322.5t83.5 -322.5t229.5 -233.5t322 -86zM840 -50q-156 0 -299 61.5t-246 164.5t-164.5 246t-61.5 299t61.5 299
t164.5 246t246 164.5t299 61.5t299 -61.5t246 -164.5t164.5 -246t61.5 -299t-61.5 -299t-164.5 -246t-246 -164.5t-299 -61.5z" />
    <glyph glyph-name="uni25B2.whitecircle" unicode="&#x25b2;&#x20dd;" 
d="M1154 513h-627l313 543zM840 78q176 0 322 86t229.5 233.5t83.5 322.5t-83.5 322.5t-229.5 233.5t-322 86t-322 -86t-229.5 -233.5t-83.5 -322.5t83.5 -322.5t229.5 -233.5t322 -86zM840 -50q-156 0 -299 61.5t-246 164.5t-164.5 246t-61.5 299t61.5 299t164.5 246
t246 164.5t299 61.5t299 -61.5t246 -164.5t164.5 -246t61.5 -299t-61.5 -299t-164.5 -246t-246 -164.5t-299 -61.5z" />
    <glyph glyph-name="uni25C0.whitecircle" unicode="&#x25c0;&#x20dd;" 
d="M1056 415l-543 314l543 313v-627zM840 78q176 0 322 86t229.5 233.5t83.5 322.5t-83.5 322.5t-229.5 233.5t-322 86t-322 -86t-229.5 -233.5t-83.5 -322.5t83.5 -322.5t229.5 -233.5t322 -86zM840 -50q-156 0 -299 61.5t-246 164.5t-164.5 246t-61.5 299t61.5 299
t164.5 246t246 164.5t299 61.5t299 -61.5t246 -164.5t164.5 -246t61.5 -299t-61.5 -299t-164.5 -246t-246 -164.5t-299 -61.5z" />
    <glyph glyph-name="uni25B6.whitecircle" unicode="&#x25b6;&#x20dd;" 
d="M624 415v627l543 -313zM840 78q176 0 322 86t229.5 233.5t83.5 322.5t-83.5 322.5t-229.5 233.5t-322 86t-322 -86t-229.5 -233.5t-83.5 -322.5t83.5 -322.5t229.5 -233.5t322 -86zM840 -50q-156 0 -299 61.5t-246 164.5t-164.5 246t-61.5 299t61.5 299t164.5 246
t246 164.5t299 61.5t299 -61.5t246 -164.5t164.5 -246t61.5 -299t-61.5 -299t-164.5 -246t-246 -164.5t-299 -61.5z" />
    <glyph glyph-name="question.whitecircle" unicode="&#x3f;&#x20dd;" 
d="M738 454q0 34 24.5 55.5t63.5 21.5q40 0 65 -21t25 -56q0 -33 -25 -54t-65 -21q-38 0 -63 21.5t-25 53.5zM764 606v33q-3 53 22 90.5t74 71.5q32 22 45.5 33t25 30.5t11.5 43.5q0 44 -30.5 67t-75.5 23q-52 0 -80.5 -30t-28.5 -76h-119q-1 54 19 94.5t54.5 63.5t75 34
t85.5 11q97 0 163 -47t66 -134q0 -41 -17.5 -74t-36 -49t-51.5 -40q-38 -28 -51.5 -39.5t-24 -31t-10.5 -47.5v-27h-116zM840 78q176 0 322 86t229.5 233.5t83.5 322.5t-83.5 322.5t-229.5 233.5t-322 86t-322 -86t-229.5 -233.5t-83.5 -322.5t83.5 -322.5t229.5 -233.5
t322 -86zM840 -50q-156 0 -299 61.5t-246 164.5t-164.5 246t-61.5 299t61.5 299t164.5 246t246 164.5t299 61.5t299 -61.5t246 -164.5t164.5 -246t61.5 -299t-61.5 -299t-164.5 -246t-246 -164.5t-299 -61.5z" />
    <glyph glyph-name="exclam.whitecircle" unicode="&#x21;&#x20dd;" 
d="M751 454q0 35 24.5 56.5t64.5 21.5t64.5 -21.5t24.5 -56.5q0 -33 -25 -54t-64 -21t-64 21t-25 54zM770 1081h141l-15 -454h-111zM840 78q176 0 322 86t229.5 233.5t83.5 322.5t-83.5 322.5t-229.5 233.5t-322 86t-322 -86t-229.5 -233.5t-83.5 -322.5t83.5 -322.5
t229.5 -233.5t322 -86zM840 -50q-156 0 -299 61.5t-246 164.5t-164.5 246t-61.5 299t61.5 299t164.5 246t246 164.5t299 61.5t299 -61.5t246 -164.5t164.5 -246t61.5 -299t-61.5 -299t-164.5 -246t-246 -164.5t-299 -61.5z" />
    <glyph glyph-name="uni2717.whitecircle" unicode="&#x2717;&#x20dd;" 
d="M844 806l259 258l82 -81l-258 -259l258 -259l-82 -83l-259 258l-259 -258l-83 83l258 259l-259 260l82 82zM840 78q176 0 322 86t229.5 233.5t83.5 322.5t-83.5 322.5t-229.5 233.5t-322 86t-322 -86t-229.5 -233.5t-83.5 -322.5t83.5 -322.5t229.5 -233.5t322 -86z
M840 -50q-156 0 -299 61.5t-246 164.5t-164.5 246t-61.5 299t61.5 299t164.5 246t246 164.5t299 61.5t299 -61.5t246 -164.5t164.5 -246t61.5 -299t-61.5 -299t-164.5 -246t-246 -164.5t-299 -61.5z" />
    <glyph glyph-name="uni2713.whitecircle" unicode="&#x2713;&#x20dd;" 
d="M1263 950l-546 -544l-288 285l88 87l199 -198l459 458zM840 78q176 0 322 86t229.5 233.5t83.5 322.5t-83.5 322.5t-229.5 233.5t-322 86t-322 -86t-229.5 -233.5t-83.5 -322.5t83.5 -322.5t229.5 -233.5t322 -86zM840 -50q-156 0 -299 61.5t-246 164.5t-164.5 246
t-61.5 299t61.5 299t164.5 246t246 164.5t299 61.5t299 -61.5t246 -164.5t164.5 -246t61.5 -299t-61.5 -299t-164.5 -246t-246 -164.5t-299 -61.5z" />
    <glyph glyph-name="zero.whitesquare" unicode="&#x30;&#x20de;" 
d="M840 486q67 0 105.5 65.5t38.5 183.5t-38.5 183.5t-105.5 65.5t-105.5 -65.5t-38.5 -183.5t38.5 -183.5t105.5 -65.5zM840 376q-120 0 -194 95.5t-74 263.5t74 263.5t194 95.5t194 -95.5t74 -263.5t-74 -263.5t-194 -95.5zM356 1464h968q107 0 182.5 -74.5t75.5 -179.5
v-976q0 -105 -75.5 -179.5t-182.5 -74.5h-968q-107 0 -182.5 74.5t-75.5 179.5v976q0 105 75.5 179.5t182.5 74.5zM1453 1208q0 56 -42.5 97t-100.5 41h-940q-58 0 -100.5 -40.5t-42.5 -97.5v-972q0 -56 42.5 -97t100.5 -41h940q58 0 100.5 41t42.5 97v972z" />
    <glyph glyph-name="one.whitesquare" unicode="&#x31;&#x20de;" 
d="M949 388h-130v571h-6l-166 -114v117l172 119h130v-693zM356 1464h968q107 0 182.5 -74.5t75.5 -179.5v-976q0 -105 -75.5 -179.5t-182.5 -74.5h-968q-107 0 -182.5 74.5t-75.5 179.5v976q0 105 75.5 179.5t182.5 74.5zM1453 1208q0 56 -42.5 97t-100.5 41h-940
q-58 0 -100.5 -40.5t-42.5 -97.5v-972q0 -56 42.5 -97t100.5 -41h940q58 0 100.5 41t42.5 97v972z" />
    <glyph glyph-name="two.whitesquare" unicode="&#x32;&#x20de;" 
d="M722 878h-124v6q0 86 63.5 148t179.5 62q108 0 174.5 -54.5t66.5 -138.5q0 -33 -9 -61.5t-31.5 -59t-36.5 -46.5t-49 -52l-174 -185v-6h313v-103h-492v77l268 280q26 26 40.5 43.5t28 45.5t13.5 56q0 45 -32.5 74t-81.5 29q-54 0 -85.5 -31.5t-31.5 -77.5v-6zM356 1464
h968q107 0 182.5 -74.5t75.5 -179.5v-976q0 -105 -75.5 -179.5t-182.5 -74.5h-968q-107 0 -182.5 74.5t-75.5 179.5v976q0 105 75.5 179.5t182.5 74.5zM1453 1208q0 56 -42.5 97t-100.5 41h-940q-58 0 -100.5 -40.5t-42.5 -97.5v-972q0 -56 42.5 -97t100.5 -41h940
q58 0 100.5 41t42.5 97v972z" />
    <glyph glyph-name="three.whitesquare" unicode="&#x33;&#x20de;" 
d="M760 696v98h77q51 0 84.5 29.5t33.5 73.5q-1 43 -34 71t-84 28t-84 -26.5t-35 -62.5h-122q2 80 67 133t177 54q109 0 175.5 -50t68.5 -129q1 -67 -42.5 -110t-92.5 -51v-6q59 -6 107.5 -48.5t49.5 -118.5q1 -93 -76.5 -149.5t-193.5 -56.5q-115 0 -183.5 53.5
t-71.5 134.5h120q4 -39 41.5 -64t94.5 -26q62 0 101 32t39 81q-2 49 -39 79.5t-97 30.5h-81zM356 1464h968q107 0 182.5 -74.5t75.5 -179.5v-976q0 -105 -75.5 -179.5t-182.5 -74.5h-968q-107 0 -182.5 74.5t-75.5 179.5v976q0 105 75.5 179.5t182.5 74.5zM1453 1208
q0 56 -42.5 97t-100.5 41h-940q-58 0 -100.5 -40.5t-42.5 -97.5v-972q0 -56 42.5 -97t100.5 -41h940q58 0 100.5 41t42.5 97v972z" />
    <glyph glyph-name="four.whitesquare" unicode="&#x34;&#x20de;" 
d="M835 1081h189v-458h91v-102h-91v-133h-123v133h-352v103q30 54 69.5 117.5t68 108.5t77 119.5t71.5 111.5zM670 623h231v361h-6q-135 -198 -225 -357v-4zM356 1464h968q107 0 182.5 -74.5t75.5 -179.5v-976q0 -105 -75.5 -179.5t-182.5 -74.5h-968q-107 0 -182.5 74.5
t-75.5 179.5v976q0 105 75.5 179.5t182.5 74.5zM1453 1208q0 56 -42.5 97t-100.5 41h-940q-58 0 -100.5 -40.5t-42.5 -97.5v-972q0 -56 42.5 -97t100.5 -41h940q58 0 100.5 41t42.5 97v972z" />
    <glyph glyph-name="five.whitesquare" unicode="&#x35;&#x20de;" 
d="M592 562h121q9 -43 46.5 -65t88.5 -22q56 0 97 38.5t41 102.5q0 58 -40.5 94.5t-98.5 36.5q-46 0 -79 -20.5t-47 -47.5h-114l32 402h434v-102h-329l-17 -195h6q15 21 53.5 40.5t93.5 19.5q99 0 166 -60.5t67 -164.5q0 -109 -74.5 -176.5t-195.5 -67.5q-108 0 -177 53
t-74 134zM356 1464h968q107 0 182.5 -74.5t75.5 -179.5v-976q0 -105 -75.5 -179.5t-182.5 -74.5h-968q-107 0 -182.5 74.5t-75.5 179.5v976q0 105 75.5 179.5t182.5 74.5zM1453 1208q0 56 -42.5 97t-100.5 41h-940q-58 0 -100.5 -40.5t-42.5 -97.5v-972q0 -56 42.5 -97
t100.5 -41h940q58 0 100.5 41t42.5 97v972z" />
    <glyph glyph-name="six.whitesquare" unicode="&#x36;&#x20de;" 
d="M1099 926h-125q-8 27 -37.5 47.5t-77.5 20.5q-73 0 -116 -68.5t-42 -186.5h7q18 41 63.5 70t114.5 29q93 0 160.5 -59t67.5 -163q0 -112 -73 -176.5t-190 -64.5q-151 0 -222 110q-54 84 -54 229q0 189 76.5 284t209.5 95q106 0 170 -51t68 -116zM716 611q0 -63 39 -100
t97 -37q60 0 98 35.5t38 100.5q0 63 -39.5 97.5t-96.5 34.5q-60 0 -98 -36.5t-38 -94.5zM356 1464h968q107 0 182.5 -74.5t75.5 -179.5v-976q0 -105 -75.5 -179.5t-182.5 -74.5h-968q-107 0 -182.5 74.5t-75.5 179.5v976q0 105 75.5 179.5t182.5 74.5zM1453 1208
q0 56 -42.5 97t-100.5 41h-940q-58 0 -100.5 -40.5t-42.5 -97.5v-972q0 -56 42.5 -97t100.5 -41h940q58 0 100.5 41t42.5 97v972z" />
    <glyph glyph-name="seven.whitesquare" unicode="&#x37;&#x20de;" 
d="M602 1081h491v-105l-296 -588h-137l301 584v6h-359v103zM356 1464h968q107 0 182.5 -74.5t75.5 -179.5v-976q0 -105 -75.5 -179.5t-182.5 -74.5h-968q-107 0 -182.5 74.5t-75.5 179.5v976q0 105 75.5 179.5t182.5 74.5zM1453 1208q0 56 -42.5 97t-100.5 41h-940
q-58 0 -100.5 -40.5t-42.5 -97.5v-972q0 -56 42.5 -97t100.5 -41h940q58 0 100.5 41t42.5 97v972z" />
    <glyph glyph-name="eight.whitesquare" unicode="&#x38;&#x20de;" 
d="M840 467q63 0 104 33.5t41 85.5t-40.5 85.5t-104.5 33.5q-63 0 -104.5 -34t-41.5 -85q0 -52 41 -85.5t105 -33.5zM840 793q53 0 87 29.5t34 75.5t-34 74.5t-87 28.5t-87 -28.5t-34 -74.5t34 -75.5t87 -29.5zM838 375q-122 0 -197.5 56t-75.5 147q0 64 41.5 111.5
t109.5 61.5v5q-57 18 -89.5 59t-32.5 96q0 80 69 131.5t177 51.5t177 -51.5t69 -131.5q0 -55 -33 -97t-89 -58v-5q68 -14 109.5 -61t41.5 -111q0 -91 -77 -147.5t-200 -56.5zM356 1464h968q107 0 182.5 -74.5t75.5 -179.5v-976q0 -105 -75.5 -179.5t-182.5 -74.5h-968
q-107 0 -182.5 74.5t-75.5 179.5v976q0 105 75.5 179.5t182.5 74.5zM1453 1208q0 56 -42.5 97t-100.5 41h-940q-58 0 -100.5 -40.5t-42.5 -97.5v-972q0 -56 42.5 -97t100.5 -41h940q58 0 100.5 41t42.5 97v972z" />
    <glyph glyph-name="nine.whitesquare" unicode="&#x39;&#x20de;" 
d="M567 858q0 109 74 172.5t190 63.5q57 0 103.5 -17t86 -54.5t62 -108t22.5 -167.5q0 -371 -287 -371q-105 0 -166 47.5t-67 112.5h125q7 -24 36.5 -42.5t73.5 -18.5q85 0 125.5 70.5t35.5 182.5h-6q-17 -43 -62.5 -71.5t-112.5 -28.5q-98 0 -165.5 61.5t-67.5 168.5z
M962 857q0 65 -38 102t-98 37q-57 0 -95 -37t-38 -100q0 -64 38.5 -99.5t96.5 -35.5q57 0 95.5 35t38.5 98zM356 1464h968q107 0 182.5 -74.5t75.5 -179.5v-976q0 -105 -75.5 -179.5t-182.5 -74.5h-968q-107 0 -182.5 74.5t-75.5 179.5v976q0 105 75.5 179.5t182.5 74.5z
M1453 1208q0 56 -42.5 97t-100.5 41h-940q-58 0 -100.5 -40.5t-42.5 -97.5v-972q0 -56 42.5 -97t100.5 -41h940q58 0 100.5 41t42.5 97v972z" />
    <glyph glyph-name="plus.uc.whitesquare" unicode="&#x2b;&#x20de;" 
d="M894 682v-217h-108v217h-212v102h212v209h108v-209h212v-102h-212zM356 1464h968q107 0 182.5 -74.5t75.5 -179.5v-976q0 -105 -75.5 -179.5t-182.5 -74.5h-968q-107 0 -182.5 74.5t-75.5 179.5v976q0 105 75.5 179.5t182.5 74.5zM1453 1208q0 56 -42.5 97t-100.5 41
h-940q-58 0 -100.5 -40.5t-42.5 -97.5v-972q0 -56 42.5 -97t100.5 -41h940q58 0 100.5 41t42.5 97v972z" />
    <glyph glyph-name="minus.uc.whitesquare" unicode="&#x2212;&#x20de;" 
d="M1095 677h-510v104h510v-104zM356 1464h968q107 0 182.5 -74.5t75.5 -179.5v-976q0 -105 -75.5 -179.5t-182.5 -74.5h-968q-107 0 -182.5 74.5t-75.5 179.5v976q0 105 75.5 179.5t182.5 74.5zM1453 1208q0 56 -42.5 97t-100.5 41h-940q-58 0 -100.5 -40.5t-42.5 -97.5
v-972q0 -56 42.5 -97t100.5 -41h940q58 0 100.5 41t42.5 97v972z" />
    <glyph glyph-name="multiply.uc.whitesquare" unicode="&#xd7;&#x20de;" 
d="M840 802l163 156l77 -73l-163 -156l163 -156l-77 -73l-163 156l-163 -156l-77 73l163 156l-163 156l77 73zM356 1464h968q107 0 182.5 -74.5t75.5 -179.5v-976q0 -105 -75.5 -179.5t-182.5 -74.5h-968q-107 0 -182.5 74.5t-75.5 179.5v976q0 105 75.5 179.5t182.5 74.5z
M1453 1208q0 56 -42.5 97t-100.5 41h-940q-58 0 -100.5 -40.5t-42.5 -97.5v-972q0 -56 42.5 -97t100.5 -41h940q58 0 100.5 41t42.5 97v972z" />
    <glyph glyph-name="divide.uc.whitesquare" unicode="&#xf7;&#x20de;" 
d="M1095 683h-510v91h510v-91zM761 934q0 33 22.5 54.5t55.5 21.5q36 0 59 -21.5t23 -54.5q0 -31 -23.5 -52t-58.5 -21q-33 0 -55.5 21t-22.5 52zM761 527q0 33 22.5 54.5t56.5 21.5q35 0 58 -21.5t23 -54.5q0 -31 -23 -52t-58 -21q-34 0 -56.5 21t-22.5 52zM356 1464h968
q107 0 182.5 -74.5t75.5 -179.5v-976q0 -105 -75.5 -179.5t-182.5 -74.5h-968q-107 0 -182.5 74.5t-75.5 179.5v976q0 105 75.5 179.5t182.5 74.5zM1453 1208q0 56 -42.5 97t-100.5 41h-940q-58 0 -100.5 -40.5t-42.5 -97.5v-972q0 -56 42.5 -97t100.5 -41h940
q58 0 100.5 41t42.5 97v972z" />
    <glyph glyph-name="equal.uc.whitesquare" unicode="&#x3d;&#x20de;" 
d="M1081 567h-482v95h482v-95zM1081 795h-482v96h482v-96zM356 1464h968q107 0 182.5 -74.5t75.5 -179.5v-976q0 -105 -75.5 -179.5t-182.5 -74.5h-968q-107 0 -182.5 74.5t-75.5 179.5v976q0 105 75.5 179.5t182.5 74.5zM1453 1208q0 56 -42.5 97t-100.5 41h-940
q-58 0 -100.5 -40.5t-42.5 -97.5v-972q0 -56 42.5 -97t100.5 -41h940q58 0 100.5 41t42.5 97v972z" />
    <glyph glyph-name="greater.uc.whitesquare" unicode="&#x3e;&#x20de;" 
d="M1106 764v-84l-482 -246v122l337 167v5l-337 173v124zM356 1464h968q107 0 182.5 -74.5t75.5 -179.5v-976q0 -105 -75.5 -179.5t-182.5 -74.5h-968q-107 0 -182.5 74.5t-75.5 179.5v976q0 105 75.5 179.5t182.5 74.5zM1453 1208q0 56 -42.5 97t-100.5 41h-940
q-58 0 -100.5 -40.5t-42.5 -97.5v-972q0 -56 42.5 -97t100.5 -41h940q58 0 100.5 41t42.5 97v972z" />
    <glyph glyph-name="less.uc.whitesquare" unicode="&#x3c;&#x20de;" 
d="M575 680v84l481 261v-124l-338 -173v-5l338 -167v-122zM356 1464h968q107 0 182.5 -74.5t75.5 -179.5v-976q0 -105 -75.5 -179.5t-182.5 -74.5h-968q-107 0 -182.5 74.5t-75.5 179.5v976q0 105 75.5 179.5t182.5 74.5zM1453 1208q0 56 -42.5 97t-100.5 41h-940
q-58 0 -100.5 -40.5t-42.5 -97.5v-972q0 -56 42.5 -97t100.5 -41h940q58 0 100.5 41t42.5 97v972z" />
    <glyph glyph-name="numbersign.whitesquare" unicode="&#x23;&#x20de;" 
d="M1127 802h-112l-30 -139h107l-19 -90h-107l-40 -190h-98l41 190h-131l-40 -190h-98l40 190h-105l18 90h106l30 139h-101l18 90h103l38 184h97l-38 -184h130l39 184h97l-38 -184h111zM782 806l-33 -153h144l33 153h-144zM356 1464h968q107 0 182.5 -74.5t75.5 -179.5v-976
q0 -105 -75.5 -179.5t-182.5 -74.5h-968q-107 0 -182.5 74.5t-75.5 179.5v976q0 105 75.5 179.5t182.5 74.5zM1453 1208q0 56 -42.5 97t-100.5 41h-940q-58 0 -100.5 -40.5t-42.5 -97.5v-972q0 -56 42.5 -97t100.5 -41h940q58 0 100.5 41t42.5 97v972z" />
    <glyph glyph-name="uni25BC.whitesquare" unicode="&#x25bc;&#x20de;" 
d="M1155 945l-314 -543l-314 543h628zM356 1464h968q107 0 182.5 -74.5t75.5 -179.5v-976q0 -105 -75.5 -179.5t-182.5 -74.5h-968q-107 0 -182.5 74.5t-75.5 179.5v976q0 105 75.5 179.5t182.5 74.5zM1453 1208q0 56 -42.5 97t-100.5 41h-940q-58 0 -100.5 -40.5
t-42.5 -97.5v-972q0 -56 42.5 -97t100.5 -41h940q58 0 100.5 41t42.5 97v972z" />
    <glyph glyph-name="uni25B2.whitesquare" unicode="&#x25b2;&#x20de;" 
d="M1154 513h-627l313 543zM356 1464h968q107 0 182.5 -74.5t75.5 -179.5v-976q0 -105 -75.5 -179.5t-182.5 -74.5h-968q-107 0 -182.5 74.5t-75.5 179.5v976q0 105 75.5 179.5t182.5 74.5zM1453 1208q0 56 -42.5 97t-100.5 41h-940q-58 0 -100.5 -40.5t-42.5 -97.5v-972
q0 -56 42.5 -97t100.5 -41h940q58 0 100.5 41t42.5 97v972z" />
    <glyph glyph-name="uni25C0.whitesquare" unicode="&#x25c0;&#x20de;" 
d="M1056 415l-543 314l543 313v-627zM356 1464h968q107 0 182.5 -74.5t75.5 -179.5v-976q0 -105 -75.5 -179.5t-182.5 -74.5h-968q-107 0 -182.5 74.5t-75.5 179.5v976q0 105 75.5 179.5t182.5 74.5zM1453 1208q0 56 -42.5 97t-100.5 41h-940q-58 0 -100.5 -40.5
t-42.5 -97.5v-972q0 -56 42.5 -97t100.5 -41h940q58 0 100.5 41t42.5 97v972z" />
    <glyph glyph-name="uni25B6.whitesquare" unicode="&#x25b6;&#x20de;" 
d="M624 415v627l543 -313zM356 1464h968q107 0 182.5 -74.5t75.5 -179.5v-976q0 -105 -75.5 -179.5t-182.5 -74.5h-968q-107 0 -182.5 74.5t-75.5 179.5v976q0 105 75.5 179.5t182.5 74.5zM1453 1208q0 56 -42.5 97t-100.5 41h-940q-58 0 -100.5 -40.5t-42.5 -97.5v-972
q0 -56 42.5 -97t100.5 -41h940q58 0 100.5 41t42.5 97v972z" />
    <glyph glyph-name="question.whitesquare" unicode="&#x3f;&#x20de;" 
d="M738 454q0 34 24.5 55.5t63.5 21.5q40 0 65 -21t25 -56q0 -33 -25 -54t-65 -21q-38 0 -63 21.5t-25 53.5zM608 892q-1 54 19 94.5t54.5 63.5t75 34t85.5 11q97 0 163 -47t66 -134q0 -41 -17.5 -74t-36 -49t-51.5 -40q-38 -28 -51.5 -39.5t-24 -31t-10.5 -47.5v-27h-116
v33q-3 53 22 90.5t74 71.5q32 22 45.5 33t25 30.5t11.5 43.5q0 44 -30.5 67t-75.5 23q-52 0 -80.5 -30t-28.5 -76h-119zM356 1464h968q107 0 182.5 -74.5t75.5 -179.5v-976q0 -105 -75.5 -179.5t-182.5 -74.5h-968q-107 0 -182.5 74.5t-75.5 179.5v976q0 105 75.5 179.5
t182.5 74.5zM1453 1208q0 56 -42.5 97t-100.5 41h-940q-58 0 -100.5 -40.5t-42.5 -97.5v-972q0 -56 42.5 -97t100.5 -41h940q58 0 100.5 41t42.5 97v972z" />
    <glyph glyph-name="exclam.whitesquare" unicode="&#x21;&#x20de;" 
d="M751 454q0 35 24.5 56.5t64.5 21.5t64.5 -21.5t24.5 -56.5q0 -33 -25 -54t-64 -21t-64 21t-25 54zM770 1081h141l-15 -454h-111zM356 1464h968q107 0 182.5 -74.5t75.5 -179.5v-976q0 -105 -75.5 -179.5t-182.5 -74.5h-968q-107 0 -182.5 74.5t-75.5 179.5v976
q0 105 75.5 179.5t182.5 74.5zM1453 1208q0 56 -42.5 97t-100.5 41h-940q-58 0 -100.5 -40.5t-42.5 -97.5v-972q0 -56 42.5 -97t100.5 -41h940q58 0 100.5 41t42.5 97v972z" />
    <glyph glyph-name="uni2717.whitesquare" unicode="&#x2717;&#x20de;" 
d="M844 806l259 258l82 -81l-258 -259l258 -259l-82 -83l-259 258l-259 -258l-83 83l258 259l-259 260l82 82zM356 1464h968q107 0 182.5 -74.5t75.5 -179.5v-976q0 -105 -75.5 -179.5t-182.5 -74.5h-968q-107 0 -182.5 74.5t-75.5 179.5v976q0 105 75.5 179.5t182.5 74.5z
M1453 1208q0 56 -42.5 97t-100.5 41h-940q-58 0 -100.5 -40.5t-42.5 -97.5v-972q0 -56 42.5 -97t100.5 -41h940q58 0 100.5 41t42.5 97v972z" />
    <glyph glyph-name="uni2713.whitesquare" unicode="&#x2713;&#x20de;" 
d="M1263 950l-546 -544l-288 285l88 87l199 -198l459 458zM356 1464h968q107 0 182.5 -74.5t75.5 -179.5v-976q0 -105 -75.5 -179.5t-182.5 -74.5h-968q-107 0 -182.5 74.5t-75.5 179.5v976q0 105 75.5 179.5t182.5 74.5zM1453 1208q0 56 -42.5 97t-100.5 41h-940
q-58 0 -100.5 -40.5t-42.5 -97.5v-972q0 -56 42.5 -97t100.5 -41h940q58 0 100.5 41t42.5 97v972z" />
    <glyph glyph-name="plus.uc.blackcircle" unicode="&#x2b;&#x20dd;&#x25cf;" 
d="M905 674h231v121h-231v228h-130v-228h-231v-121h231v-237h130v237zM840 -50q-156 0 -299 61.5t-246 164.5t-164.5 246t-61.5 299t61.5 299t164.5 246t246 164.5t299 61.5t299 -61.5t246 -164.5t164.5 -246t61.5 -299t-61.5 -299t-164.5 -246t-246 -164.5t-299 -61.5z" />
    <glyph glyph-name="minus.uc.blackcircle" unicode="&#x2212;&#x20dd;&#x25cf;" 
d="M1124 668v124h-568v-124h568zM840 -50q-156 0 -299 61.5t-246 164.5t-164.5 246t-61.5 299t61.5 299t164.5 246t246 164.5t299 61.5t299 -61.5t246 -164.5t164.5 -246t61.5 -299t-61.5 -299t-164.5 -246t-246 -164.5t-299 -61.5z" />
    <glyph glyph-name="multiply.uc.blackcircle" unicode="&#xd7;&#x20dd;&#x25cf;" 
d="M840 817l-178 170l-91 -87l178 -171l-178 -169l91 -87l178 169l178 -169l91 87l-178 169l178 171l-91 87zM840 -50q-156 0 -299 61.5t-246 164.5t-164.5 246t-61.5 299t61.5 299t164.5 246t246 164.5t299 61.5t299 -61.5t246 -164.5t164.5 -246t61.5 -299t-61.5 -299
t-164.5 -246t-246 -164.5t-299 -61.5z" />
    <glyph glyph-name="divide.uc.blackcircle" unicode="&#xf7;&#x20dd;&#x25cf;" 
d="M748 953q0 -37 26 -61t65 -24t66.5 24.5t27.5 60.5q0 39 -27 63.5t-67 24.5q-39 0 -65 -24.5t-26 -63.5zM1124 674v110h-568v-110h568zM748 510q0 -37 26.5 -61t65.5 -24t66 24.5t27 60.5q0 39 -26.5 63.5t-66.5 24.5q-39 0 -65.5 -24.5t-26.5 -63.5zM840 -50
q-156 0 -299 61.5t-246 164.5t-164.5 246t-61.5 299t61.5 299t164.5 246t246 164.5t299 61.5t299 -61.5t246 -164.5t164.5 -246t61.5 -299t-61.5 -299t-164.5 -246t-246 -164.5t-299 -61.5z" />
    <glyph glyph-name="equal.uc.blackcircle" unicode="&#x3d;&#x20dd;&#x25cf;" 
d="M1107 796v116h-534v-116h534zM1107 548v115h-534v-115h534zM840 -50q-156 0 -299 61.5t-246 164.5t-164.5 246t-61.5 299t61.5 299t164.5 246t246 164.5t299 61.5t299 -61.5t246 -164.5t164.5 -246t61.5 -299t-61.5 -299t-164.5 -246t-246 -164.5t-299 -61.5z" />
    <glyph glyph-name="greater.uc.blackcircle" unicode="&#x3e;&#x20dd;&#x25cf;" 
d="M1128 770l-535 290v-145l368 -190l1 -1l-369 -179v-145l535 274v96zM840 -50q-156 0 -299 61.5t-246 164.5t-164.5 246t-61.5 299t61.5 299t164.5 246t246 164.5t299 61.5t299 -61.5t246 -164.5t164.5 -246t61.5 -299t-61.5 -299t-164.5 -246t-246 -164.5t-299 -61.5z
" />
    <glyph glyph-name="less.uc.blackcircle" unicode="&#x3c;&#x20dd;&#x25cf;" 
d="M544 674l534 -274v145l-367 179v1l367 190v145l-534 -290v-96zM840 -50q-156 0 -299 61.5t-246 164.5t-164.5 246t-61.5 299t61.5 299t164.5 246t246 164.5t299 61.5t299 -61.5t246 -164.5t164.5 -246t61.5 -299t-61.5 -299t-164.5 -246t-246 -164.5t-299 -61.5z" />
    <glyph glyph-name="numbersign.blackcircle" unicode="&#x23;&#x20dd;&#x25cf;" 
d="M780 809h147l-34 -157h-146zM1157 805l22 108h-122l42 200h-117l-41 -200h-132l42 200h-117l-41 -200h-113l-22 -108h111l-30 -141h-116l-22 -110h114l-43 -206h117l44 206h132l-44 -206h117l43 206h117l23 110h-116l29 141h123zM840 -50q-156 0 -299 61.5t-246 164.5
t-164.5 246t-61.5 299t61.5 299t164.5 246t246 164.5t299 61.5t299 -61.5t246 -164.5t164.5 -246t61.5 -299t-61.5 -299t-164.5 -246t-246 -164.5t-299 -61.5z" />
    <glyph glyph-name="uni25BC.blackcircle" unicode="&#x25bc;&#x20dd;&#x25cf;" 
d="M1186 980h-691l345 -598zM840 -50q-156 0 -299 61.5t-246 164.5t-164.5 246t-61.5 299t61.5 299t164.5 246t246 164.5t299 61.5t299 -61.5t246 -164.5t164.5 -246t61.5 -299t-61.5 -299t-164.5 -246t-246 -164.5t-299 -61.5z" />
    <glyph glyph-name="uni25B2.blackcircle" unicode="&#x25b2;&#x20dd;&#x25cf;" 
d="M1186 493l-346 598l-345 -598h691zM840 -50q-156 0 -299 61.5t-246 164.5t-164.5 246t-61.5 299t61.5 299t164.5 246t246 164.5t299 61.5t299 -61.5t246 -164.5t164.5 -246t61.5 -299t-61.5 -299t-164.5 -246t-246 -164.5t-299 -61.5z" />
    <glyph glyph-name="uni25C0.blackcircle" unicode="&#x25c0;&#x20dd;&#x25cf;" 
d="M1084 392v689l-599 -344zM840 -50q-156 0 -299 61.5t-246 164.5t-164.5 246t-61.5 299t61.5 299t164.5 246t246 164.5t299 61.5t299 -61.5t246 -164.5t164.5 -246t61.5 -299t-61.5 -299t-164.5 -246t-246 -164.5t-299 -61.5z" />
    <glyph glyph-name="uni25B6.blackcircle" unicode="&#x25b6;&#x20dd;&#x25cf;" 
d="M596 392l599 345l-599 344v-689zM840 -50q-156 0 -299 61.5t-246 164.5t-164.5 246t-61.5 299t61.5 299t164.5 246t246 164.5t299 61.5t299 -61.5t246 -164.5t164.5 -246t61.5 -299t-61.5 -299t-164.5 -246t-246 -164.5t-299 -61.5z" />
    <glyph glyph-name="question.blackcircle" unicode="&#x3f;&#x20dd;&#x25cf;" 
d="M719 429q0 -38 29 -62.5t73 -24.5q46 0 74.5 24.5t28.5 62.5q0 41 -28.5 65.5t-74.5 24.5q-45 0 -73.5 -25t-28.5 -65zM748 590h137v34q0 42 17.5 63.5t73.5 60.5q37 27 57.5 45t40 55.5t19.5 82.5q0 97 -73.5 150t-181.5 53q-50 0 -94.5 -12.5t-83 -38t-61 -71
t-22.5 -105.5v-5h140q0 50 30 82.5t85 32.5q46 0 78 -23.5t32 -69.5q0 -25 -13 -45.5t-27.5 -32.5t-46.5 -34q-55 -38 -82.5 -80t-24.5 -101v-41zM840 -50q-156 0 -299 61.5t-246 164.5t-164.5 246t-61.5 299t61.5 299t164.5 246t246 164.5t299 61.5t299 -61.5t246 -164.5
t164.5 -246t61.5 -299t-61.5 -299t-164.5 -246t-246 -164.5t-299 -61.5z" />
    <glyph glyph-name="exclam.blackcircle" unicode="&#x21;&#x20dd;&#x25cf;" 
d="M757 1118l17 -505h132l17 505h-166zM738 430q0 -37 28.5 -62t73.5 -25t73.5 25t28.5 62q0 40 -28.5 64.5t-73.5 24.5t-73.5 -24.5t-28.5 -64.5zM840 -50q-156 0 -299 61.5t-246 164.5t-164.5 246t-61.5 299t61.5 299t164.5 246t246 164.5t299 61.5t299 -61.5t246 -164.5
t164.5 -246t61.5 -299t-61.5 -299t-164.5 -246t-246 -164.5t-299 -61.5z" />
    <glyph glyph-name="uni2717.blackcircle" unicode="&#x2717;&#x20dd;&#x25cf;" 
d="M844 816l-286 287l-91 -90l285 -287l-284 -284l92 -92l284 284l285 -284l90 92l-284 284l284 284l-90 91zM840 -50q-156 0 -299 61.5t-246 164.5t-164.5 246t-61.5 299t61.5 299t164.5 246t246 164.5t299 61.5t299 -61.5t246 -164.5t164.5 -246t61.5 -299t-61.5 -299
t-164.5 -246t-246 -164.5t-299 -61.5z" />
    <glyph glyph-name="uni2713.blackcircle" unicode="&#x2713;&#x20dd;&#x25cf;" 
d="M704 377l600 599l-97 96l-504 -503l-218 217l-97 -96zM840 -50q-156 0 -299 61.5t-246 164.5t-164.5 246t-61.5 299t61.5 299t164.5 246t246 164.5t299 61.5t299 -61.5t246 -164.5t164.5 -246t61.5 -299t-61.5 -299t-164.5 -246t-246 -164.5t-299 -61.5z" />
    <glyph glyph-name="zero.blacksquare" unicode="&#x30;&#x20de;&#x25a0;" 
d="M836 461q-70 0 -109 71t-39 203t39 203t109 71t109 -71t39 -203t-39 -203t-109 -71zM836 338q138 0 220 106.5t82 290.5t-82 290.5t-220 106.5t-220 -106.5t-82 -290.5t82 -290.5t220 -106.5zM356 1464h968q107 0 182.5 -74.5t75.5 -179.5v-976q0 -105 -75.5 -179.5
t-182.5 -74.5h-968q-107 0 -182.5 74.5t-75.5 179.5v976q0 105 75.5 179.5t182.5 74.5z" />
    <glyph glyph-name="one.blacksquare" unicode="&#x31;&#x20de;&#x25a0;" 
d="M963 353v765h-148l-191 -132v-140l187 128h1v-621h151zM356 1464h968q107 0 182.5 -74.5t75.5 -179.5v-976q0 -105 -75.5 -179.5t-182.5 -74.5h-968q-107 0 -182.5 74.5t-75.5 179.5v976q0 105 75.5 179.5t182.5 74.5z" />
    <glyph glyph-name="two.blacksquare" unicode="&#x32;&#x20de;&#x25a0;" 
d="M712 886v11q0 48 32.5 81.5t89.5 33.5q51 0 85 -30.5t34 -76.5q0 -30 -14.5 -60.5t-30 -49t-43.5 -46.5l-293 -306v-91h546v122h-342l203 212q33 36 48.5 54t37 49t30.5 61.5t9 65.5q0 93 -74 154t-194 61q-129 0 -199.5 -69.5t-70.5 -164.5v-11h146zM356 1464h968
q107 0 182.5 -74.5t75.5 -179.5v-976q0 -105 -75.5 -179.5t-182.5 -74.5h-968q-107 0 -182.5 74.5t-75.5 179.5v976q0 105 75.5 179.5t182.5 74.5z" />
    <glyph glyph-name="three.blacksquare" unicode="&#x33;&#x20de;&#x25a0;" 
d="M744 688h93q63 0 101.5 -32t39.5 -83q0 -52 -40 -84.5t-106 -32.5q-59 1 -99 28.5t-45 69.5h-140q4 -92 79.5 -154t203.5 -62q129 0 215 63t85 168q-3 83 -54.5 130.5t-114.5 54.5q53 11 99 59t45 120q-2 88 -76 144t-194 56q-125 -1 -197 -62t-75 -153h144
q2 40 36.5 68.5t87.5 28.5q54 0 88.5 -28.5t35.5 -74.5q0 -46 -35 -76t-89 -30h-88v-118zM356 1464h968q107 0 182.5 -74.5t75.5 -179.5v-976q0 -105 -75.5 -179.5t-182.5 -74.5h-968q-107 0 -182.5 74.5t-75.5 179.5v976q0 105 75.5 179.5t182.5 74.5z" />
    <glyph glyph-name="four.blacksquare" unicode="&#x34;&#x20de;&#x25a0;" 
d="M828 1118q-244 -380 -314 -503v-117h383v-145h145v145h100v120h-100v500h-214zM656 618v1q77 134 241 380v-381h-241zM356 1464h968q107 0 182.5 -74.5t75.5 -179.5v-976q0 -105 -75.5 -179.5t-182.5 -74.5h-968q-107 0 -182.5 74.5t-75.5 179.5v976q0 105 75.5 179.5
t182.5 74.5z" />
    <glyph glyph-name="five.blacksquare" unicode="&#x35;&#x20de;&#x25a0;" 
d="M559 552q5 -93 81.5 -153t197.5 -60q133 0 216 75t83 197q0 114 -75 181.5t-184 67.5q-57 0 -98.5 -19.5t-61.5 -43.5q11 148 17 201h359v120h-483l-35 -448h131q16 29 51 51.5t84 22.5q61 0 103.5 -38t42.5 -100q0 -68 -43 -108t-101 -40q-53 0 -93.5 24.5t-49.5 69.5
h-142zM356 1464h968q107 0 182.5 -74.5t75.5 -179.5v-976q0 -105 -75.5 -179.5t-182.5 -74.5h-968q-107 0 -182.5 74.5t-75.5 179.5v976q0 105 75.5 179.5t182.5 74.5z" />
    <glyph glyph-name="six.blacksquare" unicode="&#x36;&#x20de;&#x25a0;" 
d="M1139 607q0 115 -75 180.5t-178 65.5q-78 0 -127.5 -31t-71.5 -77l-2 -3q-1 125 45.5 197.5t125.5 72.5q50 0 81 -22t40 -51h146q-4 75 -75 134t-189 59q-148 0 -233 -106t-85 -313q0 -162 61 -253q41 -61 106 -91.5t140 -30.5q129 0 210 71.5t81 197.5zM705 601
q0 61 40.5 99.5t104.5 38.5q59 0 100.5 -36.5t41.5 -102.5q0 -69 -40 -106t-102 -37t-103.5 39t-41.5 105zM356 1464h968q107 0 182.5 -74.5t75.5 -179.5v-976q0 -105 -75.5 -179.5t-182.5 -74.5h-968q-107 0 -182.5 74.5t-75.5 179.5v976q0 105 75.5 179.5t182.5 74.5z" />
    <glyph glyph-name="seven.blacksquare" unicode="&#x37;&#x20de;&#x25a0;" 
d="M571 1118v-123h392v-1l-332 -641h159l325 645v120h-544zM356 1464h968q107 0 182.5 -74.5t75.5 -179.5v-976q0 -105 -75.5 -179.5t-182.5 -74.5h-968q-107 0 -182.5 74.5t-75.5 179.5v976q0 105 75.5 179.5t182.5 74.5z" />
    <glyph glyph-name="eight.blacksquare" unicode="&#x38;&#x20de;&#x25a0;" 
d="M836 805q-56 0 -90.5 30t-34.5 78t34.5 78t90.5 30t90.5 -30t34.5 -78t-34.5 -78t-90.5 -30zM836 449q-67 0 -110.5 35.5t-43.5 88.5q0 54 43.5 89.5t110.5 35.5t110.5 -35.5t43.5 -89.5q0 -53 -43.5 -88.5t-110.5 -35.5zM836 338q136 0 220 62.5t84 164.5
q0 70 -44 121.5t-119 67.5q62 21 96.5 66.5t34.5 107.5q0 91 -75.5 148t-196.5 57t-196.5 -57t-75.5 -148q0 -62 34.5 -107.5t96.5 -66.5q-75 -16 -119 -67.5t-44 -121.5q0 -102 84 -164.5t220 -62.5zM356 1464h968q107 0 182.5 -74.5t75.5 -179.5v-976q0 -105 -75.5 -179.5
t-182.5 -74.5h-968q-107 0 -182.5 74.5t-75.5 179.5v976q0 105 75.5 179.5t182.5 74.5z" />
    <glyph glyph-name="nine.blacksquare" unicode="&#x39;&#x20de;&#x25a0;" 
d="M533 870q0 -119 75 -188t185 -69q73 0 122 29.5t70 76.5q2 -116 -40.5 -188.5t-130.5 -72.5q-45 0 -76.5 19.5t-39.5 45.5h-146q7 -75 75 -129.5t185 -54.5q158 0 238 103.5t80 305.5q0 108 -24.5 186t-69 120t-96 60.5t-114.5 18.5q-129 0 -211 -71t-82 -192zM965 868
q0 -66 -41.5 -102.5t-101.5 -36.5t-101 37.5t-41 104.5q0 66 40.5 105t100.5 39q63 0 103.5 -39.5t40.5 -107.5zM356 1464h968q107 0 182.5 -74.5t75.5 -179.5v-976q0 -105 -75.5 -179.5t-182.5 -74.5h-968q-107 0 -182.5 74.5t-75.5 179.5v976q0 105 75.5 179.5t182.5 74.5
z" />
    <glyph glyph-name="plus.uc.blacksquare" unicode="&#x2b;&#x20de;&#x25a0;" 
d="M905 674h231v121h-231v228h-130v-228h-231v-121h231v-237h130v237zM356 1464h968q107 0 182.5 -74.5t75.5 -179.5v-976q0 -105 -75.5 -179.5t-182.5 -74.5h-968q-107 0 -182.5 74.5t-75.5 179.5v976q0 105 75.5 179.5t182.5 74.5z" />
    <glyph glyph-name="minus.uc.blacksquare" unicode="&#x2212;&#x20de;&#x25a0;" 
d="M1124 668v124h-568v-124h568zM356 1464h968q107 0 182.5 -74.5t75.5 -179.5v-976q0 -105 -75.5 -179.5t-182.5 -74.5h-968q-107 0 -182.5 74.5t-75.5 179.5v976q0 105 75.5 179.5t182.5 74.5z" />
    <glyph glyph-name="multiply.uc.blacksquare" unicode="&#xd7;&#x20de;&#x25a0;" 
d="M840 817l-178 170l-91 -87l178 -171l-178 -169l91 -87l178 169l178 -169l91 87l-178 169l178 171l-91 87zM356 1464h968q107 0 182.5 -74.5t75.5 -179.5v-976q0 -105 -75.5 -179.5t-182.5 -74.5h-968q-107 0 -182.5 74.5t-75.5 179.5v976q0 105 75.5 179.5t182.5 74.5z
" />
    <glyph glyph-name="divide.uc.blacksquare" unicode="&#xf7;&#x20de;&#x25a0;" 
d="M748 953q0 -37 26 -61t65 -24t66.5 24.5t27.5 60.5q0 39 -27 63.5t-67 24.5q-39 0 -65 -24.5t-26 -63.5zM1124 674v110h-568v-110h568zM748 510q0 -37 26.5 -61t65.5 -24t66 24.5t27 60.5q0 39 -26.5 63.5t-66.5 24.5q-39 0 -65.5 -24.5t-26.5 -63.5zM356 1464h968
q107 0 182.5 -74.5t75.5 -179.5v-976q0 -105 -75.5 -179.5t-182.5 -74.5h-968q-107 0 -182.5 74.5t-75.5 179.5v976q0 105 75.5 179.5t182.5 74.5z" />
    <glyph glyph-name="equal.uc.blacksquare" unicode="&#x3d;&#x20de;&#x25a0;" 
d="M1107 796v116h-534v-116h534zM1107 548v115h-534v-115h534zM356 1464h968q107 0 182.5 -74.5t75.5 -179.5v-976q0 -105 -75.5 -179.5t-182.5 -74.5h-968q-107 0 -182.5 74.5t-75.5 179.5v976q0 105 75.5 179.5t182.5 74.5z" />
    <glyph glyph-name="greater.uc.blacksquare" unicode="&#x3e;&#x20de;&#x25a0;" 
d="M1128 770l-535 290v-145l368 -190l1 -1l-369 -179v-145l535 274v96zM356 1464h968q107 0 182.5 -74.5t75.5 -179.5v-976q0 -105 -75.5 -179.5t-182.5 -74.5h-968q-107 0 -182.5 74.5t-75.5 179.5v976q0 105 75.5 179.5t182.5 74.5z" />
    <glyph glyph-name="less.uc.blacksquare" unicode="&#x3c;&#x20de;&#x25a0;" 
d="M544 674l534 -274v145q-4 2 -367 179v1l367 190v145l-534 -290v-96zM356 1464h968q107 0 182.5 -74.5t75.5 -179.5v-976q0 -105 -75.5 -179.5t-182.5 -74.5h-968q-107 0 -182.5 74.5t-75.5 179.5v976q0 105 75.5 179.5t182.5 74.5z" />
    <glyph glyph-name="numbersign.blacksquare" unicode="&#x23;&#x20de;&#x25a0;" 
d="M780 809h147l-34 -157h-146zM1157 805l22 108h-122l42 200h-117l-41 -200h-132l42 200h-117l-41 -200h-113l-22 -108h111l-30 -141h-116l-22 -110h114l-43 -206h117l44 206h132l-44 -206h117l43 206h117l23 110h-116l29 141h123zM356 1464h968q107 0 182.5 -74.5
t75.5 -179.5v-976q0 -105 -75.5 -179.5t-182.5 -74.5h-968q-107 0 -182.5 74.5t-75.5 179.5v976q0 105 75.5 179.5t182.5 74.5z" />
    <glyph glyph-name="uni25BC.blacksquare" unicode="&#x25bc;&#x20de;&#x25a0;" 
d="M1186 975h-691l345 -599zM356 1464h968q107 0 182.5 -74.5t75.5 -179.5v-976q0 -105 -75.5 -179.5t-182.5 -74.5h-968q-107 0 -182.5 74.5t-75.5 179.5v976q0 105 75.5 179.5t182.5 74.5z" />
    <glyph glyph-name="uni25B2.blacksquare" unicode="&#x25b2;&#x20de;&#x25a0;" 
d="M1186 493l-346 598l-345 -598h691zM356 1464h968q107 0 182.5 -74.5t75.5 -179.5v-976q0 -105 -75.5 -179.5t-182.5 -74.5h-968q-107 0 -182.5 74.5t-75.5 179.5v976q0 105 75.5 179.5t182.5 74.5z" />
    <glyph glyph-name="uni25C0.blacksquare" unicode="&#x25c0;&#x20de;&#x25a0;" 
d="M1084 392v689l-599 -344zM356 1464h968q107 0 182.5 -74.5t75.5 -179.5v-976q0 -105 -75.5 -179.5t-182.5 -74.5h-968q-107 0 -182.5 74.5t-75.5 179.5v976q0 105 75.5 179.5t182.5 74.5z" />
    <glyph glyph-name="uni25B6.blacksquare" unicode="&#x25b6;&#x20de;&#x25a0;" 
d="M596 392l599 345l-599 344v-689zM356 1464h968q107 0 182.5 -74.5t75.5 -179.5v-976q0 -105 -75.5 -179.5t-182.5 -74.5h-968q-107 0 -182.5 74.5t-75.5 179.5v976q0 105 75.5 179.5t182.5 74.5z" />
    <glyph glyph-name="question.blacksquare" unicode="&#x3f;&#x20de;&#x25a0;" 
d="M719 429q0 -38 29 -62.5t73 -24.5q46 0 74.5 24.5t28.5 62.5q0 41 -28.5 65.5t-74.5 24.5q-45 0 -73.5 -25t-28.5 -65zM838 1134q-50 0 -94.5 -12.5t-83 -38t-61 -71t-22.5 -105.5v-5h140q0 50 30 82.5t85 32.5q46 0 78 -23.5t32 -69.5q0 -25 -13 -45.5t-27.5 -32.5
t-46.5 -34q-55 -38 -82.5 -80t-24.5 -101v-41h137v34q0 42 17.5 63.5t73.5 60.5q37 27 57.5 45t40 55.5t19.5 82.5q0 97 -73.5 150t-181.5 53zM356 1464h968q107 0 182.5 -74.5t75.5 -179.5v-976q0 -105 -75.5 -179.5t-182.5 -74.5h-968q-107 0 -182.5 74.5t-75.5 179.5v976
q0 105 75.5 179.5t182.5 74.5z" />
    <glyph glyph-name="exclam.blacksquare" unicode="&#x21;&#x20de;&#x25a0;" 
d="M757 1118l17 -505h132l17 505h-166zM738 430q0 -37 28.5 -62t73.5 -25t73.5 25t28.5 62q0 40 -28.5 64.5t-73.5 24.5t-73.5 -24.5t-28.5 -64.5zM356 1464h968q107 0 182.5 -74.5t75.5 -179.5v-976q0 -105 -75.5 -179.5t-182.5 -74.5h-968q-107 0 -182.5 74.5t-75.5 179.5
v976q0 105 75.5 179.5t182.5 74.5z" />
    <glyph glyph-name="uni2717.blacksquare" unicode="&#x2717;&#x20de;&#x25a0;" 
d="M467 1013l285 -287l-284 -284l92 -92l284 284l285 -284l90 92l-284 284l284 284l-90 91l-285 -285l-286 287zM356 1464h968q107 0 182.5 -74.5t75.5 -179.5v-976q0 -105 -75.5 -179.5t-182.5 -74.5h-968q-107 0 -182.5 74.5t-75.5 179.5v976q0 105 75.5 179.5t182.5 74.5
z" />
    <glyph glyph-name="uni2713.blacksquare" unicode="&#x2713;&#x20de;&#x25a0;" 
d="M704 377l600 599l-97 96l-504 -503l-218 217l-97 -96zM356 1464h968q107 0 182.5 -74.5t75.5 -179.5v-976q0 -105 -75.5 -179.5t-182.5 -74.5h-968q-107 0 -182.5 74.5t-75.5 179.5v976q0 105 75.5 179.5t182.5 74.5z" />
    <glyph glyph-name=".notdef" horiz-adv-x="2048" 
d="M100 -494v284h1848v-284h-1848zM100 -62v284h1848v-284h-1848zM100 370v284h1848v-284h-1848zM100 802v284h1848v-284h-1848zM100 1234v284h1848v-284h-1848zM100 1666v284h1848v-284h-1848z" />
    <glyph glyph-name=".null" horiz-adv-x="0" 
 />
    <glyph glyph-name="nonmarkingreturn" horiz-adv-x="0" 
 />
    <glyph glyph-name="space" unicode=" " horiz-adv-x="420" 
 />
    <glyph glyph-name="exclam" unicode="!" horiz-adv-x="546" 
d="M183 1443h180l-12 -964h-156zM273 -10q-48 0 -81 33t-33 81q0 49 33 81.5t81 32.5q49 0 81.5 -32.5t32.5 -81.5q0 -48 -32.5 -81t-81.5 -33z" />
    <glyph glyph-name="quotedbl" unicode="&#x22;" horiz-adv-x="807" 
d="M295 934h-160v509h160v-509zM672 934h-160v509h160v-509z" />
    <glyph glyph-name="numbersign" unicode="#" horiz-adv-x="1231" 
d="M623 0l82 403h-328l-82 -403h-142l81 403h-234l28 144h237l73 364h-247l29 143h247l81 389h142l-78 -389h326l81 389h143l-80 -389h249l-28 -143h-251l-75 -364h261l-28 -144h-262l-82 -403h-143zM405 544h330l75 369h-330z" />
    <glyph glyph-name="dollar" unicode="$" horiz-adv-x="1239" 
d="M688 -137h-134v134q-203 15 -325.5 123t-123.5 275h171q8 -100 81 -164t197 -79v520l-80 22q-161 42 -247.5 138t-86.5 235q0 164 111 269t303 124v140h134v-139q187 -16 301.5 -123t119.5 -269h-170q-3 93 -71.5 158.5t-179.5 78.5v-489l85 -21q184 -49 272.5 -143
t88.5 -245q0 -177 -117.5 -285t-328.5 -125v-135zM961 394q0 99 -66 160t-207 91v-496q130 7 201.5 71t71.5 174zM312 1077q0 -180 242 -231v460q-105 -6 -173.5 -70.5t-68.5 -158.5z" />
    <glyph glyph-name="percent" unicode="%" horiz-adv-x="1498" 
d="M656 1102q0 -163 -83 -261t-220 -98t-220 98t-83 261t83 261t220 98t220 -98t83 -261zM353 865q66 0 104.5 63.5t38.5 173.5t-38.5 173.5t-104.5 63.5t-104.5 -63.5t-38.5 -173.5t38.5 -173.5t104.5 -63.5zM309 0h-174l557 761l499 682h172l-542 -742zM1449 344
q0 -163 -83 -261t-220 -98t-220 98t-83 261t83 261t220 98t220 -98t83 -261zM1146 107q66 0 104.5 63.5t38.5 173.5t-38.5 173.5t-104.5 63.5t-104.5 -63.5t-38.5 -173.5t38.5 -173.5t104.5 -63.5z" />
    <glyph glyph-name="ampersand" unicode="&#x26;" horiz-adv-x="1370" 
d="M1161 0l-134 145q-91 -81 -211.5 -125t-249.5 -44q-214 0 -349 114t-135 294q0 250 283 400q52 27 55 28q-97 103 -138 179.5t-41 155.5q0 137 104 228.5t260 91.5q159 0 262 -91t103 -231q0 -110 -72 -196.5t-237 -173.5l357 -385q69 129 69 384v43h166v-44
q0 -317 -119 -504l253 -269h-226zM468 679q-112 -68 -160 -134t-48 -149q0 -121 89 -195.5t233 -74.5q97 0 189.5 36.5t150.5 97.5l-406 445q-29 -13 -48 -26zM565 876q129 66 183 126t54 137q0 83 -54.5 135t-141.5 52q-85 0 -140 -53t-55 -136q0 -59 35 -118t119 -143z
" />
    <glyph glyph-name="quotesingle" unicode="'" horiz-adv-x="430" 
d="M295 934h-160v509h160v-509z" />
    <glyph glyph-name="parenleft" unicode="(" horiz-adv-x="660" 
d="M190 568q0 514 284 875h146q-107 -124 -180 -377t-73 -498t73 -498t180 -377h-146q-284 361 -284 875z" />
    <glyph glyph-name="parenright" unicode=")" horiz-adv-x="660" 
d="M470 568q0 -163 -24.5 -302.5t-69.5 -246.5t-88.5 -179.5t-101.5 -146.5h-146q37 43 77.5 118.5t81.5 185t67.5 260.5t26.5 311t-26.5 311.5t-68 260.5t-81.5 184.5t-77 118.5h146q58 -74 101.5 -146.5t88.5 -179.5t69.5 -246.5t24.5 -302.5z" />
    <glyph glyph-name="asterisk" unicode="*" horiz-adv-x="988" 
d="M794 883l-243 153l10 -287h-131l11 287l-246 -154l-62 120l252 128l-251 129l62 116l245 -151l-10 285h130l-10 -286l244 152l64 -116l-254 -130l254 -128z" />
    <glyph glyph-name="plus" unicode="+" horiz-adv-x="1239" 
d="M700 488v-458h-162v458h-427v162h427v447h162v-447h427v-162h-427z" />
    <glyph glyph-name="comma" unicode="," horiz-adv-x="520" 
d="M232 -287h-145l97 509h185z" />
    <glyph glyph-name="hyphen" unicode="&#x2011;" horiz-adv-x="878" 
d="M767 504h-656v162h656v-162z" />
    <glyph glyph-name="hyphen" unicode="-" horiz-adv-x="878" 
d="M767 504h-656v162h656v-162z" />
    <glyph glyph-name="period" unicode="." horiz-adv-x="520" 
d="M260 -10q-48 0 -81 33t-33 81t33 81t81 33t81 -33t33 -81t-33 -81t-81 -33z" />
    <glyph glyph-name="slash" unicode="/" horiz-adv-x="660" 
d="M149 -307h-149l511 1750h149z" />
    <glyph glyph-name="zero" unicode="0" horiz-adv-x="1242" 
d="M622 -24q-251 0 -391.5 200.5t-140.5 545.5q0 342 141.5 543.5t390.5 201.5t389.5 -200.5t140.5 -543.5q0 -345 -140 -546t-390 -201zM622 133q167 0 258 157.5t91 431.5q0 270 -92 428.5t-257 158.5t-258 -159t-93 -427q0 -274 92 -432t259 -158z" />
    <glyph glyph-name="one" unicode="1" horiz-adv-x="908" 
d="M485 0v1252h-4l-382 -275v190l384 276h176v-1443h-174z" />
    <glyph glyph-name="two" unicode="2" horiz-adv-x="1159" 
d="M108 1027q0 189 136 314.5t340 125.5q193 0 327 -115t134 -281q0 -120 -66 -231t-248 -299l-365 -377v-4h703v-160h-952v124l508 535q145 153 192.5 232t47.5 169q0 104 -83.5 177t-202.5 73q-127 0 -212 -81t-85 -202v-1h-174v1z" />
    <glyph glyph-name="three" unicode="3" horiz-adv-x="1212" 
d="M411 666v152h173q124 0 203 71.5t79 181.5t-73 175t-207 65q-124 0 -202 -66t-90 -180h-173q15 184 142.5 293t330.5 109q195 0 324 -105t129 -267q0 -135 -80 -227t-216 -116v-4q164 -10 261 -104.5t97 -246.5q0 -121 -68 -218t-184 -150t-257 -53q-224 0 -361 112
t-147 294h173q12 -113 101 -181.5t232 -68.5t235.5 73t92.5 186q0 127 -89.5 201t-244.5 74h-181z" />
    <glyph glyph-name="four" unicode="4" horiz-adv-x="1239" 
d="M803 0v300h-725v163q93 173 236.5 395t396.5 585h266v-985h204v-158h-204v-300h-174zM256 462v-4h547v835h-3q-379 -541 -544 -831z" />
    <glyph glyph-name="five" unicode="5" horiz-adv-x="1198" 
d="M613 -24q-207 0 -345.5 117t-149.5 301h177q12 -115 101 -187.5t219 -72.5q147 0 239.5 92t92.5 238t-92.5 239.5t-236.5 93.5q-101 0 -183 -43t-126 -119h-169l79 808h826v-160h-678l-44 -470h4q49 65 134.5 102t188.5 37q208 0 342.5 -136.5t134.5 -346.5
q0 -217 -144 -355t-370 -138z" />
    <glyph glyph-name="six" unicode="6" horiz-adv-x="1226" 
d="M639 -25q-162 0 -286 84.5t-191 240.5q-71 164 -71 397q0 365 147.5 568t412.5 203q184 0 314 -102t165 -272h-183q-29 98 -110 156.5t-188 58.5q-181 0 -280 -155t-104 -443h3q49 106 159 170t244 64q206 0 342.5 -136t136.5 -341q0 -214 -144.5 -353.5t-366.5 -139.5z
M637 135q138 0 234 95t96 232q0 142 -92 233.5t-235 91.5t-237.5 -91t-94.5 -229q0 -139 95.5 -235.5t233.5 -96.5z" />
    <glyph glyph-name="seven" unicode="7" horiz-adv-x="1120" 
d="M200 0l653 1279v4h-777v160h955v-167l-642 -1276h-189z" />
    <glyph glyph-name="eight" unicode="8" horiz-adv-x="1227" 
d="M613 -24q-229 0 -376 116.5t-147 297.5q0 135 85 237t225 134v4q-117 36 -185 122.5t-68 200.5q0 163 132.5 271t333.5 108q202 0 333.5 -107.5t131.5 -272.5q0 -113 -67 -199t-185 -123v-4q140 -33 225.5 -135t85.5 -236q0 -181 -147 -297.5t-377 -116.5zM613 133
q149 0 244.5 76t95.5 194q0 119 -95.5 195t-244.5 76t-244.5 -76.5t-95.5 -194.5t96 -194t244 -76zM613 832q126 0 206.5 67t80.5 172q0 106 -80 173.5t-207 67.5t-207 -67.5t-80 -173.5q0 -105 80 -172t207 -67z" />
    <glyph glyph-name="nine" unicode="9" horiz-adv-x="1226" 
d="M576 -24q-184 0 -315 102t-164 272h183q29 -98 110 -157.5t188 -59.5q180 0 279.5 156.5t103.5 444.5h-1h-2q-46 -107 -155.5 -171.5t-247.5 -64.5q-206 0 -342.5 136t-136.5 341q0 214 144.5 353.5t366.5 139.5q163 0 287 -84.5t190 -239.5q71 -164 71 -398
q0 -365 -147 -567.5t-412 -202.5zM586 656q143 0 238 91t95 229q0 139 -95.5 234.5t-234.5 95.5t-235 -94.5t-96 -230.5q0 -141 93 -233t235 -92z" />
    <glyph glyph-name="colon" unicode=":" horiz-adv-x="520" 
d="M260 -10q-48 0 -81 33t-33 81t33 81t81 33t81 -33t33 -81t-33 -81t-81 -33zM260 726q-48 0 -81 33t-33 81t33 81t81 33t81 -33t33 -81t-33 -81t-81 -33z" />
    <glyph glyph-name="semicolon" unicode=";" horiz-adv-x="520" 
d="M260 726q-48 0 -81 33t-33 81t33 81t81 33t81 -33t33 -81t-33 -81t-81 -33zM232 -287h-145l97 509h185z" />
    <glyph glyph-name="less" unicode="&#x3c;" horiz-adv-x="1239" 
d="M1059 980l-707 -400v-9l707 -378v-186l-879 491v142l879 526v-186z" />
    <glyph glyph-name="equal" unicode="=" horiz-adv-x="1239" 
d="M1108 301h-977v154h977v-154zM1108 684h-977v154h977v-154z" />
    <glyph glyph-name="greater" unicode="&#x3e;" horiz-adv-x="1239" 
d="M180 981v186l879 -526v-142l-879 -491v186l707 378v9z" />
    <glyph glyph-name="question" unicode="?" horiz-adv-x="1002" 
d="M56 1066q9 171 121.5 279.5t314.5 108.5q187 0 305.5 -103t118.5 -259q0 -219 -209 -345q-94 -56 -128.5 -106t-34.5 -130v-65h-175v92q-1 98 47.5 170t152.5 134q88 54 124.5 108t36.5 133q0 94 -67.5 154.5t-177.5 60.5q-113 0 -181.5 -62t-76.5 -170h-171zM457 -10
q-48 0 -81 33t-33 81q0 49 33 81.5t81 32.5q49 0 81.5 -32.5t32.5 -81.5q0 -48 -32.5 -81t-81.5 -33z" />
    <glyph glyph-name="at" unicode="@" horiz-adv-x="1791" 
d="M889 875q-100 0 -156.5 -74t-56.5 -205q0 -130 56.5 -205t154.5 -75q103 0 164 76t61 204t-60.5 203.5t-162.5 75.5zM924 1435q173 0 321.5 -53.5t254.5 -149t166 -233t60 -300.5q0 -242 -101 -387.5t-275 -145.5q-87 0 -151 47t-73 121h-8q-32 -76 -98.5 -117.5
t-155.5 -41.5q-156 0 -252 117t-96 308q0 182 97 297.5t251 115.5q80 0 147 -38.5t95 -102.5h8v122h151v-587q0 -51 28.5 -81t84.5 -30q92 0 149.5 107.5t57.5 297.5q0 179 -85 317.5t-238.5 214.5t-350.5 76q-192 0 -345.5 -90.5t-240 -254t-86.5 -369.5q0 -166 53.5 -300
t148 -221.5t223 -134t279.5 -46.5q101 0 194 13t141 35v-126q-139 -49 -337 -49q-184 0 -338 55.5t-266.5 159.5t-175.5 263t-63 357q0 185 61 340.5t169.5 264t262 169t333.5 60.5z" />
    <glyph glyph-name="A" unicode="A" horiz-adv-x="1292" 
d="M1078 0l-145 413h-574l-145 -413h-189l532 1443h178l532 -1443h-189zM643 1224l-231 -658h468l-231 658h-6z" />
    <glyph glyph-name="B" unicode="B" horiz-adv-x="1238" 
d="M685 0h-545v1443h547q185 0 299.5 -99t114.5 -261q0 -113 -72.5 -204.5t-176.5 -110.5v-8q147 -19 234.5 -115t87.5 -240q0 -191 -129.5 -298t-359.5 -107zM320 1284v-463h270q160 0 244.5 62t84.5 179q0 107 -71 164.5t-202 57.5h-326zM320 159h338q163 0 247 65t84 190
q0 252 -348 252h-321v-507z" />
    <glyph glyph-name="C" unicode="C" horiz-adv-x="1405" 
d="M734 -24q-299 0 -474.5 201.5t-175.5 544.5q0 340 177 542.5t473 202.5q236 0 400.5 -131.5t198.5 -347.5h-182q-35 142 -149 227.5t-268 85.5q-211 0 -338 -158t-127 -421q0 -266 126 -423t340 -157q159 0 268 73t148 205h182q-50 -214 -205 -329t-394 -115z" />
    <glyph glyph-name="D" unicode="D" horiz-adv-x="1389" 
d="M140 1443h485q321 0 501 -190.5t180 -530.5q0 -341 -179.5 -531.5t-501.5 -190.5h-485v1443zM320 1281v-1119h293q245 0 377 144.5t132 413.5q0 271 -131.5 416t-377.5 145h-293z" />
    <glyph glyph-name="E" unicode="E" horiz-adv-x="1131" 
d="M1034 162v-162h-894v1443h894v-162h-714v-463h677v-160h-677v-496h714z" />
    <glyph glyph-name="F" unicode="F" horiz-adv-x="1081" 
d="M320 0h-180v1443h876v-162h-696v-496h639v-160h-639v-625z" />
    <glyph glyph-name="G" unicode="G" horiz-adv-x="1447" 
d="M1357 597q0 -293 -161.5 -457t-450.5 -164q-302 0 -481.5 204.5t-179.5 548.5q0 338 179 538t482 200q234 0 398.5 -128.5t204.5 -343.5h-189q-45 146 -153.5 226t-260.5 80q-223 0 -349.5 -151.5t-126.5 -419.5q0 -272 128 -430t348 -158q192 0 312 113.5t120 294.5v26
h-407v158h587v-137z" />
    <glyph glyph-name="H" unicode="H" horiz-adv-x="1432" 
d="M1292 0h-180v657h-792v-657h-180v1443h180v-624h792v624h180v-1443z" />
    <glyph glyph-name="I" unicode="I" horiz-adv-x="460" 
d="M320 0h-180v1443h180v-1443z" />
    <glyph glyph-name="J" unicode="J" horiz-adv-x="1014" 
d="M42 339h179q3 -92 66.5 -149.5t161.5 -57.5q119 0 182 69.5t63 201.5v1040h180v-1041q0 -205 -112 -320.5t-312 -115.5q-180 0 -294 104.5t-114 268.5z" />
    <glyph glyph-name="K" unicode="K" horiz-adv-x="1260" 
d="M320 0h-180v1443h180v-704h10l637 704h227l-593 -639l646 -804h-230l-541 676l-156 -172v-504z" />
    <glyph glyph-name="L" unicode="L" horiz-adv-x="1074" 
d="M1016 162v-162h-876v1443h180v-1281h696z" />
    <glyph glyph-name="M" unicode="M" horiz-adv-x="1702" 
d="M1562 0h-168v1112h-7l-460 -1102h-152l-460 1102h-7v-1112h-168v1443h209l498 -1204h8l498 1204h209v-1443z" />
    <glyph glyph-name="N" unicode="N" horiz-adv-x="1432" 
d="M318 0h-178v1443h175l790 -1133h9v1133h178v-1443h-175l-790 1129h-9v-1129z" />
    <glyph glyph-name="O" unicode="O" horiz-adv-x="1498" 
d="M749 1467q307 0 486 -201t179 -545t-179 -544.5t-486 -200.5t-486 200.5t-179 544.5t179 545t486 201zM749 1301q-221 0 -350.5 -156.5t-129.5 -423.5q0 -266 129.5 -422.5t350.5 -156.5t350.5 156.5t129.5 422.5q0 267 -129.5 423.5t-350.5 156.5z" />
    <glyph glyph-name="P" unicode="P" horiz-adv-x="1183" 
d="M140 1443h515q203 0 332.5 -129.5t129.5 -333.5q0 -205 -130 -335t-334 -130h-333v-515h-180v1443zM320 1283v-608h288q154 0 239 80.5t85 224.5t-84.5 223.5t-239.5 79.5h-288z" />
    <glyph glyph-name="Q" unicode="Q" horiz-adv-x="1498" 
d="M749 -24q-307 0 -486 200.5t-179 544.5t179 545t486 201t486 -201t179 -545q0 -208 -68 -367t-194 -254l191 -263h-202l-134 184q-115 -45 -258 -45zM749 142q81 0 153 23l-180 248h202l123 -168q88 74 135 196t47 280q0 267 -129.5 423.5t-350.5 156.5t-350.5 -156.5
t-129.5 -423.5q0 -266 129.5 -422.5t350.5 -156.5z" />
    <glyph glyph-name="R" unicode="R" horiz-adv-x="1227" 
d="M320 1283v-553h345q139 0 214.5 72t75.5 205q0 130 -79 203t-219 73h-337zM320 571v-571h-180v1443h541q209 0 334.5 -117.5t125.5 -312.5q0 -151 -77 -261t-213 -153l334 -599h-211l-309 571h-345z" />
    <glyph glyph-name="S" unicode="S" horiz-adv-x="1216" 
d="M71 397h181q13 -117 114.5 -188t256.5 -71q146 0 241.5 69.5t95.5 175.5q0 91 -66.5 150t-212.5 97l-185 48q-200 51 -292 142.5t-92 238.5q0 180 142.5 294t367.5 114q215 0 356 -115.5t147 -296.5h-180q-12 116 -100 183t-229 67q-140 0 -228.5 -66t-88.5 -172
q0 -82 64.5 -134.5t211.5 -90.5l151 -40q224 -56 322 -149t98 -248q0 -198 -145.5 -313.5t-394.5 -115.5q-230 0 -376 115t-159 306z" />
    <glyph glyph-name="T" unicode="T" horiz-adv-x="1190" 
d="M685 0h-180v1281h-455v162h1090v-162h-455v-1281z" />
    <glyph glyph-name="U" unicode="U" horiz-adv-x="1426" 
d="M320 1443v-925q0 -167 104.5 -271.5t288.5 -104.5t288.5 104.5t104.5 271.5v925h180v-937q0 -235 -154.5 -382.5t-418.5 -147.5t-418.5 147.5t-154.5 382.5v937h180z" />
    <glyph glyph-name="V" unicode="V" horiz-adv-x="1292" 
d="M735 0h-178l-532 1443h189l429 -1224h6l429 1224h189z" />
    <glyph glyph-name="W" unicode="W" horiz-adv-x="1892" 
d="M941 1145l-333 -1145h-170l-393 1443h188l289 -1178h8l325 1178h182l325 -1178h8l289 1178h188l-393 -1443h-170l-333 1145h-10z" />
    <glyph glyph-name="X" unicode="X" horiz-adv-x="1300" 
d="M45 0l491 723v7l-485 713h217l385 -580h7l390 580h205l-498 -722v-6l487 -715h-216l-383 575h-7l-389 -575h-204z" />
    <glyph glyph-name="Y" unicode="Y" horiz-adv-x="1254" 
d="M717 0h-180v621l-512 822h205l394 -648h6l394 648h205l-512 -822v-621z" />
    <glyph glyph-name="Z" unicode="Z" horiz-adv-x="1263" 
d="M98 0v128l823 1146v7h-795v162h1022v-128l-819 -1146v-7h836v-162h-1067z" />
    <glyph glyph-name="bracketleft" unicode="[" horiz-adv-x="660" 
d="M206 1443h434v-136h-266v-1479h266v-135h-434v1750z" />
    <glyph glyph-name="backslash" unicode="\" horiz-adv-x="660" 
d="M511 -307l-511 1750h149l511 -1750h-149z" />
    <glyph glyph-name="bracketright" unicode="]" horiz-adv-x="660" 
d="M454 1443v-1750h-434v135h266v1479h-266v136h434z" />
    <glyph glyph-name="asciicircum" unicode="^" horiz-adv-x="896" 
d="M440 1291l-218 -475h-167l298 627h190l298 -627h-167l-218 475h-16z" />
    <glyph glyph-name="underscore" unicode="_" horiz-adv-x="828" 
d="M882 -235h-936v128h936v-128z" />
    <glyph glyph-name="grave" unicode="`" horiz-adv-x="1005" 
d="M704 1288h-152l-246 300h188z" />
    <glyph glyph-name="a" unicode="a" horiz-adv-x="1028" 
d="M456 130q123 0 206.5 76.5t83.5 188.5v85l-278 -17q-105 -7 -162.5 -51t-57.5 -118t57 -119t151 -45zM417 -18q-155 0 -250.5 86t-95.5 226q0 134 98.5 214t278.5 90l298 17v87q0 95 -60 149t-168 54q-99 0 -161 -43.5t-79 -121.5h-168q9 139 120.5 228.5t291.5 89.5
q183 0 290.5 -92t107.5 -247v-719h-165v179h-4q-47 -89 -138 -143t-196 -54z" />
    <glyph glyph-name="b" unicode="b" horiz-adv-x="1135" 
d="M630 -18q-112 0 -199.5 51t-138.5 143h-4v-176h-166v1443h174v-577h4q49 90 136.5 141t196.5 51q197 0 318 -147t121 -391q0 -245 -121 -391.5t-321 -146.5zM596 905q-133 0 -217 -106.5t-84 -278.5q0 -173 84 -279t217 -106q138 0 218 103.5t80 281.5q0 177 -80 281
t-218 104z" />
    <glyph glyph-name="c" unicode="c" horiz-adv-x="1026" 
d="M977 699h-170q-20 90 -88.5 148t-177.5 58q-136 0 -219 -104.5t-83 -280.5q0 -179 83.5 -282t220.5 -103q105 0 173.5 52.5t91.5 147.5h171q-20 -156 -140.5 -254.5t-296.5 -98.5q-218 0 -349 144.5t-131 393.5q0 245 131 391.5t347 146.5q186 0 302.5 -105t134.5 -254z
" />
    <glyph glyph-name="d" unicode="d" horiz-adv-x="1134" 
d="M507 -18q-200 0 -322.5 147t-122.5 391q0 243 122 390.5t319 147.5q110 0 197 -50t134 -137h4v572h174v-1443h-166v176h-3q-51 -91 -138 -142.5t-198 -51.5zM540 905q-138 0 -219 -104.5t-81 -280.5q0 -177 81 -281t219 -104q135 0 217 105.5t82 279.5t-82.5 279.5
t-216.5 105.5z" />
    <glyph glyph-name="e" unicode="e" horiz-adv-x="1049" 
d="M530 907q-121 0 -200.5 -83.5t-87.5 -214.5h565q-3 132 -79 215t-198 83zM803 298h171q-23 -138 -143.5 -227t-289.5 -89q-223 0 -351 144t-128 390q0 244 128.5 393t342.5 149q210 0 332 -141t122 -378v-66h-746v-10q0 -150 82 -240t222 -90q98 0 167 45t91 120z" />
    <glyph glyph-name="f" unicode="f" horiz-adv-x="622" 
d="M169 0v897h-145v143h145v116q0 150 70.5 222.5t214.5 72.5q56 0 106 -8v-141q-42 6 -79 6q-139 0 -139 -153v-115h213v-143h-212v-897h-174z" />
    <glyph glyph-name="g" unicode="g" horiz-adv-x="1125" 
d="M536 145q136 0 219 104t83 275q0 172 -83 276.5t-219 104.5q-135 0 -215.5 -103.5t-80.5 -277.5t80.5 -276.5t215.5 -102.5zM542 -392q-171 0 -294 86.5t-145 219.5h179q26 -72 98 -115t169 -43q134 0 211.5 71t77.5 188v164h-4q-49 -86 -137 -136.5t-196 -50.5
q-199 0 -319 145t-120 387q0 244 120.5 389t322.5 145q110 0 198 -51t140 -142h3v175h166v-1019q0 -187 -128 -300t-342 -113z" />
    <glyph glyph-name="h" unicode="h" horiz-adv-x="1104" 
d="M122 0v1443h174v-569h4q44 88 128.5 136t201.5 48q170 0 268 -105t98 -281v-672h-174v640q0 126 -62.5 195t-183.5 69q-129 0 -204.5 -81t-75.5 -217v-606h-174z" />
    <glyph glyph-name="i" unicode="i" horiz-adv-x="418" 
d="M122 0v1040h174v-1040h-174zM209 1215q-44 0 -76 32t-32 76q0 45 32 76.5t76 31.5q45 0 77 -31.5t32 -76.5q0 -44 -32 -76t-77 -32z" />
    <glyph glyph-name="j" unicode="j" horiz-adv-x="418" 
d="M296 1040v-1091q0 -158 -78 -232.5t-244 -74.5q-31 0 -33 1v145h27q85 0 119.5 36t34.5 123v1093h174zM209 1215q-44 0 -76 32t-32 76q0 45 32 76.5t76 31.5q45 0 77 -31.5t32 -76.5q0 -44 -32 -76t-77 -32z" />
    <glyph glyph-name="k" unicode="k" horiz-adv-x="994" 
d="M296 578l460 462h211l-451 -449l465 -591h-202l-386 484l-97 -92v-392h-174v1443h174v-865z" />
    <glyph glyph-name="l" unicode="l" horiz-adv-x="418" 
d="M122 0v1443h174v-1443h-174z" />
    <glyph glyph-name="m" unicode="m" horiz-adv-x="1645" 
d="M113 0v1040h164v-166h4q38 85 115 134.5t180 49.5q106 0 182 -51.5t110 -146.5h4q43 93 129.5 145.5t196.5 52.5q154 0 246.5 -92.5t92.5 -247.5v-718h-174v678q0 107 -56.5 166.5t-159.5 59.5t-169 -68.5t-66 -174.5v-661h-174v697q0 94 -58 150.5t-155 56.5
q-103 0 -170.5 -72t-67.5 -180v-652h-174z" />
    <glyph glyph-name="n" unicode="n" horiz-adv-x="1079" 
d="M113 0v1040h164v-166h4q45 87 129 135.5t201 48.5q170 0 265 -102.5t95 -280.5v-675h-174v644q0 127 -60 193.5t-179 66.5q-123 0 -197 -80t-74 -212v-612h-174z" />
    <glyph glyph-name="o" unicode="o" horiz-adv-x="1087" 
d="M544 -18q-218 0 -350 145.5t-132 392.5t132 392.5t350 145.5q217 0 349 -145.5t132 -392.5q0 -246 -132 -392t-349 -146zM544 135q140 0 222 101.5t82 283.5t-82 283.5t-222 101.5t-222.5 -102t-82.5 -283t82.5 -283t222.5 -102z" />
    <glyph glyph-name="p" unicode="p" horiz-adv-x="1125" 
d="M618 1058q200 0 322.5 -147t122.5 -391q0 -243 -122 -390.5t-319 -147.5q-110 0 -197 50t-134 137h-4v-516h-174v1387h165v-176h4q49 90 137 142t199 52zM584 135q139 0 220 104t81 281t-81 281t-220 104q-134 0 -216 -106t-82 -279q0 -174 82 -279.5t216 -105.5z" />
    <glyph glyph-name="q" unicode="q" horiz-adv-x="1125" 
d="M505 1058q112 0 199 -51t138 -143h4v176h166v-1387h-174v521h-4q-49 -90 -136.5 -141t-196.5 -51q-198 0 -318.5 147t-120.5 391q0 245 121 391.5t322 146.5zM536 135q134 0 218 106t84 279t-84 279t-218 106q-137 0 -216.5 -103.5t-79.5 -281.5t79.5 -281.5
t216.5 -103.5z" />
    <glyph glyph-name="r" unicode="r" horiz-adv-x="631" 
d="M113 0v1040h164v-170h4q26 87 93.5 137.5t158.5 50.5q21 0 70 -7v-169q-28 10 -93 10q-101 0 -162 -67t-61 -177v-648h-174z" />
    <glyph glyph-name="s" unicode="s" horiz-adv-x="953" 
d="M95 753q0 134 108.5 219.5t279.5 85.5q161 0 268 -86t113 -218h-166q-9 76 -67.5 119t-153.5 43t-153 -42.5t-58 -111.5q0 -106 173 -150l161 -39q157 -40 221.5 -103.5t64.5 -178.5q0 -136 -116 -222.5t-298 -86.5q-170 0 -280.5 84.5t-124.5 223.5h174
q29 -166 242 -166q105 0 166.5 41.5t61.5 112.5q0 56 -36.5 89t-123.5 56l-183 47q-273 70 -273 283z" />
    <glyph glyph-name="t" unicode="t" horiz-adv-x="617" 
d="M169 1291h174v-251h202v-143h-202v-618q0 -71 31 -104.5t98 -33.5q42 0 72 5v-146q-34 -8 -110 -8q-143 0 -204 64t-61 214v627h-155v143h155v251z" />
    <glyph glyph-name="u" unicode="u" horiz-adv-x="1079" 
d="M967 1040v-1040h-165v169h-4q-97 -187 -330 -187q-169 0 -264.5 102.5t-95.5 280.5v675h174v-644q0 -260 240 -260q126 0 198.5 79.5t72.5 213.5v611h174z" />
    <glyph glyph-name="v" unicode="v" horiz-adv-x="989" 
d="M966 1040l-382 -1040h-178l-383 1040h183l287 -855h4l288 855h181z" />
    <glyph glyph-name="w" unicode="w" horiz-adv-x="1465" 
d="M1436 1040l-290 -1040h-177l-235 805h-4l-234 -805h-177l-291 1040h173l208 -846h4l235 846h168l236 -846h4l208 846h172z" />
    <glyph glyph-name="x" unicode="x" horiz-adv-x="961" 
d="M481 396h-4l-251 -396h-193l354 520l-348 520h194l250 -390h4l247 390h194l-351 -513l346 -527h-193z" />
    <glyph glyph-name="y" unicode="y" horiz-adv-x="995" 
d="M199 -389q-46 0 -75 6v146q24 -5 68 -5q73 0 117 38.5t74 129.5l24 73l-384 1041h186l288 -866h3l288 866h183l-409 -1113q-67 -182 -144.5 -249t-218.5 -67z" />
    <glyph glyph-name="z" unicode="z" horiz-adv-x="958" 
d="M91 0v124l576 770v3h-575v143h772v-127l-572 -767v-3h575v-143h-776z" />
    <glyph glyph-name="braceleft" unicode="{" horiz-adv-x="660" 
d="M183 556q219 -22 219 -234v-263q0 -120 46 -172.5t152 -52.5h40v-141h-55q-177 0 -262 84.5t-85 259.5v223q0 120 -48 166.5t-170 46.5v190q122 0 170 46.5t48 166.5v223q0 175 85 259.5t262 84.5h55v-141h-40q-106 0 -152 -52.5t-46 -172.5v-263q0 -212 -219 -234v-24z
" />
    <glyph glyph-name="bar" unicode="|" horiz-adv-x="660" 
d="M403 -307h-146v1750h146v-1750z" />
    <glyph glyph-name="braceright" unicode="}" horiz-adv-x="660" 
d="M477 556v24q-219 22 -219 234v263q0 120 -46 172.5t-152 52.5h-40v141h55q177 0 262 -84.5t85 -259.5v-223q0 -120 48 -166.5t170 -46.5v-190q-123 0 -170.5 -46t-47.5 -165v-216q0 -179 -85.5 -266t-261.5 -87h-55v141h40q105 0 151.5 52.5t46.5 171.5v262
q0 215 219 236z" />
    <glyph glyph-name="asciitilde" unicode="~" horiz-adv-x="1239" 
d="M575 636q-54 56 -90 78.5t-70 22.5q-130 0 -141 -179h-160q-1 160 81 252t224 92q122 0 247 -125q52 -55 88 -77.5t70 -22.5q131 0 142 179h159q1 -160 -80.5 -252t-223.5 -92q-122 0 -246 124z" />
    <glyph glyph-name="nonbreakingspace" unicode="&#xa0;" horiz-adv-x="420" 
 />
    <glyph glyph-name="exclamdown" unicode="&#xa1;" horiz-adv-x="546" 
d="M183 -342l12 964h156l12 -964h-180zM273 885q-48 0 -81 33t-33 81q0 49 33 81.5t81 32.5q49 0 81.5 -32.5t32.5 -81.5q0 -48 -32.5 -81t-81.5 -33z" />
    <glyph glyph-name="cent" unicode="&#xa2;" horiz-adv-x="1239" 
d="M1125 538q-17 -148 -128.5 -250t-277.5 -119v-169h-172v171q-199 31 -316 181t-117 373q0 220 117.5 369t315.5 178v171h172v-169q166 -18 280.5 -124.5t125.5 -249.5h-174q-21 104 -105.5 164t-209.5 60q-152 0 -248 -111.5t-96 -287.5q0 -178 96.5 -292t247.5 -114
q274 0 315 219h174z" />
    <glyph glyph-name="sterling" unicode="&#xa3;" horiz-adv-x="1239" 
d="M374 154h786v-154h-1062v152q133 30 220.5 129.5t87.5 219.5q0 66 -24 152h-284v144h234q-61 171 -61 263q0 196 137.5 306.5t379.5 110.5q187 0 300 -53v-160q-38 22 -121.5 38t-169.5 16q-161 0 -251.5 -67.5t-90.5 -186.5q0 -97 60 -267h471v-144h-424q21 -84 21 -145
q0 -118 -59.5 -207t-149.5 -143v-4z" />
    <glyph glyph-name="currency" unicode="&#xa4;" horiz-adv-x="1239" 
d="M357 656q0 -109 77.5 -186.5t186.5 -77.5t186 77.5t77 186.5t-77 186.5t-186 77.5t-186.5 -77.5t-77.5 -186.5zM1112 1043l-168 -169q67 -99 67 -218q0 -121 -68 -219l169 -169l-106 -106l-169 169q-97 -66 -216 -66t-219 67l-169 -170l-106 106l170 170q-67 100 -67 218
t67 217l-170 170l106 106l169 -169q100 67 219 67q118 0 217 -67l168 169z" />
    <glyph glyph-name="yen" unicode="&#xa5;" horiz-adv-x="1239" 
d="M987 269h-277v-269h-180v269h-277v136h277v166h-277v136h223l-458 736h205l394 -647h6l393 647h205l-457 -736h223v-136h-277v-166h277v-136z" />
    <glyph glyph-name="brokenbar" unicode="&#xa6;" horiz-adv-x="660" 
d="M403 743h-146v700h146v-700zM403 -307h-146v700h146v-700z" />
    <glyph glyph-name="section" unicode="&#xa7;" horiz-adv-x="988" 
d="M429 400l83 -18q92 0 155 55t63 136q0 63 -44 106t-126 61l-83 18q-91 0 -155 -56t-64 -135q0 -62 44.5 -105.5t126.5 -61.5zM499 -257q-172 0 -285.5 83t-123.5 216h176q10 -69 77 -111t165 -42q102 0 165.5 44t63.5 114q0 56 -47 94t-151 66l-141 38
q-164 44 -240.5 113.5t-76.5 174.5q0 95 58.5 164t164.5 98v16q-219 85 -219 273q0 140 111 226.5t290 86.5q167 0 274 -78t124 -211h-173q-11 65 -73 104t-156 39q-101 0 -162.5 -43.5t-61.5 -113.5q0 -57 46 -95t149 -66l141 -38q162 -43 237.5 -111t75.5 -169
q0 -103 -71 -182t-183 -101v-16q254 -57 254 -257q0 -139 -114.5 -227.5t-293.5 -88.5z" />
    <glyph glyph-name="dieresis" unicode="&#xa8;" horiz-adv-x="1004" 
d="M316 1301q-45 0 -77.5 32t-32.5 78t32.5 78t77.5 32t77.5 -32t32.5 -78t-32.5 -78t-77.5 -32zM688 1301q-45 0 -77.5 32t-32.5 78t32.5 78t77.5 32t77.5 -32t32.5 -78t-32.5 -78t-77.5 -32z" />
    <glyph glyph-name="copyright" unicode="&#xa9;" horiz-adv-x="1706" 
d="M853 -168q-220 0 -401.5 103.5t-286.5 286t-105 404.5q0 223 105 405.5t286.5 285.5t401.5 103q221 0 402.5 -103t286 -285.5t104.5 -405.5q0 -222 -104.5 -404.5t-286 -286t-402.5 -103.5zM853 -28q181 0 330.5 85t235.5 235t86 334q0 185 -86 335t-235.5 234.5
t-330.5 84.5t-330 -84.5t-235.5 -234.5t-86.5 -335q0 -184 86.5 -334t236 -235t329.5 -85zM1231 768h-139q-17 68 -75.5 112t-146.5 44q-116 0 -184.5 -79.5t-68.5 -216.5q0 -139 69 -219.5t184 -80.5q86 0 144.5 39t77.5 112h139q-19 -123 -114.5 -199t-245.5 -76
q-181 0 -288.5 114t-107.5 310q0 192 107.5 306t287.5 114q150 0 246 -79.5t115 -200.5z" />
    <glyph glyph-name="ordfeminine" unicode="&#xaa;" horiz-adv-x="729" 
d="M326 828q81 0 134 46t53 117v56l-175 -11q-149 -11 -149 -107q0 -46 37.5 -73.5t99.5 -27.5zM286 712q-109 0 -176.5 59t-67.5 155q0 95 71 149.5t206 62.5l194 11v56q0 61 -39.5 94t-111.5 33q-58 0 -98 -28t-49 -75h-137q3 97 84.5 160t203.5 63q133 0 212.5 -64.5
t79.5 -171.5v-497h-140v120h-3q-30 -59 -92.5 -93t-136.5 -34z" />
    <glyph glyph-name="guillemotleft" unicode="&#xab;" horiz-adv-x="1302" 
d="M338 572v-14l351 -413h-204l-350 416v8l350 416h204zM816 572v-14l351 -413h-204l-350 416v8l350 416h204z" />
    <glyph glyph-name="logicalnot" unicode="&#xac;" horiz-adv-x="1239" 
d="M1093 654v-528h-148v380h-799v148h947z" />
    <glyph glyph-name="registered" unicode="&#xae;" horiz-adv-x="1160" 
d="M580 592q-132 0 -242 62t-174 170.5t-64 237.5q0 197 139.5 333.5t340.5 136.5t340.5 -136t139.5 -334q0 -197 -139.5 -333.5t-340.5 -136.5zM580 692q155 0 262.5 107.5t107.5 262.5t-107.5 262.5t-262.5 107.5t-262.5 -107.5t-107.5 -262.5q0 -154 108 -262t262 -108z
M494 846h-95v450h221q69 0 113.5 -39t44.5 -98q0 -54 -28 -89.5t-78 -43.5l129 -180h-119l-109 167h-79v-167zM494 1216v-130h107q35 0 55 18t20 50q0 62 -72 62h-110z" />
    <glyph glyph-name="macron" unicode="&#xaf;" horiz-adv-x="1000" 
d="M787 1468v-116h-574v116h574z" />
    <glyph glyph-name="degree" unicode="&#xb0;" horiz-adv-x="733" 
d="M366 887q-119 0 -201.5 83t-82.5 202t82.5 202t201.5 83q118 0 201.5 -83.5t83.5 -201.5t-83.5 -201.5t-201.5 -83.5zM366 1016q66 0 112 46t46 110q0 65 -46 111t-112 46q-63 0 -110 -46t-47 -111q0 -63 47 -109.5t110 -46.5z" />
    <glyph glyph-name="plusminus" unicode="&#xb1;" horiz-adv-x="1239" 
d="M1128 112h-1017v148h1017v-148zM693 662v-291h-147v291h-435v136h435v291h147v-291h435v-136h-435z" />
    <glyph glyph-name="two.sups" unicode="&#xb2;" horiz-adv-x="617" 
d="M45 1601q0 100 72.5 162.5t188.5 62.5q112 0 182 -56t70 -145q0 -53 -28 -101t-99 -115l-165 -155v-3h301v-126h-513v108l264 247q47 46 65 75.5t18 59.5q0 39 -28.5 63.5t-73.5 24.5t-75 -29t-30 -73v-3h-149v3z" />
    <glyph glyph-name="three.sups" unicode="&#xb3;" horiz-adv-x="643" 
d="M230 1419v113h84q46 0 73.5 24t27.5 64q0 39 -27.5 61.5t-75.5 22.5q-46 0 -75.5 -25.5t-31.5 -67.5h-147q2 98 73.5 156.5t187.5 58.5q112 0 180 -50.5t68 -133.5q0 -61 -38.5 -104.5t-103.5 -54.5v-4q78 -7 123 -51t45 -113q0 -93 -76.5 -149.5t-202.5 -56.5
q-118 0 -191 59t-78 158h154q3 -41 34.5 -65t82.5 -24q49 0 80.5 25t31.5 65q0 43 -30.5 67.5t-83.5 24.5h-84z" />
    <glyph glyph-name="acute" unicode="&#xb4;" horiz-adv-x="1005" 
d="M452 1288h-152l210 300h188z" />
    <glyph glyph-name="mugreek" unicode="&#x3bc;" horiz-adv-x="1177" 
d="M113 -347v1387h174v-639q0 -128 60.5 -195.5t176.5 -67.5q129 0 201.5 78t72.5 213v611h173v-773q0 -68 21.5 -97t68.5 -29q36 0 55 8v-145q-36 -12 -88 -12q-89 0 -142.5 35.5t-74.5 112.5q-3 10 -7 34h-2q-47 -91 -120.5 -141.5t-162.5 -50.5q-77 0 -139.5 35.5
t-90.5 93.5h-2v-458h-174z" />
    <glyph glyph-name="mugreek" unicode="&#xb5;" horiz-adv-x="1177" 
d="M113 -347v1387h174v-639q0 -128 60.5 -195.5t176.5 -67.5q129 0 201.5 78t72.5 213v611h173v-773q0 -68 21.5 -97t68.5 -29q36 0 55 8v-145q-36 -12 -88 -12q-89 0 -142.5 35.5t-74.5 112.5q-3 10 -7 34h-2q-47 -91 -120.5 -141.5t-162.5 -50.5q-77 0 -139.5 35.5
t-90.5 93.5h-2v-458h-174z" />
    <glyph glyph-name="paragraph" unicode="&#xb6;" horiz-adv-x="1201" 
d="M774 -220h-180v795h-20q-202 0 -338 121.5t-136 305.5q0 191 136.5 316t338.5 125h199v-1663zM921 -220v1663h180v-1663h-180z" />
    <glyph glyph-name="periodcentered" unicode="&#xb7;" horiz-adv-x="520" 
d="M260 489q-49 0 -82.5 33.5t-33.5 82.5t33.5 82.5t82.5 33.5t82.5 -33.5t33.5 -82.5t-33.5 -82.5t-82.5 -33.5z" />
    <glyph glyph-name="cedilla" unicode="&#xb8;" horiz-adv-x="1005" 
d="M344 -228v69l66 167h124v-8l-56 -130q99 -2 156.5 -43.5t57.5 -116.5q0 -83 -66 -129.5t-168 -48.5q-99 -2 -150 14v102q53 -12 125 -12q127 0 127 72q0 34 -34.5 49t-111.5 15h-70z" />
    <glyph glyph-name="one.sups" unicode="&#xb9;" horiz-adv-x="497" 
d="M251 1125v545h-3l-178 -122v142l176 120h158v-685h-153z" />
    <glyph glyph-name="ordmasculine" unicode="&#xba;" horiz-adv-x="768" 
d="M384 710q-158 0 -250.5 100t-92.5 271t93 271t250 100t250 -100t93 -271t-92.5 -271t-250.5 -100zM384 831q92 0 143.5 66t51.5 184t-51.5 184t-143.5 66q-91 0 -142.5 -66t-51.5 -184t51.5 -184t142.5 -66z" />
    <glyph glyph-name="guillemotright" unicode="&#xbb;" horiz-adv-x="1302" 
d="M486 572l-351 413h204l350 -416v-8l-350 -416h-204l351 413v14zM964 572l-351 413h204l350 -416v-8l-350 -416h-204l351 413v14z" />
    <glyph glyph-name="onequarter" unicode="&#xbc;" horiz-adv-x="1462" 
d="M261 758v545h-3l-178 -122v142l176 120h158v-685h-153zM265 0h-174l557 761l499 682h172l-542 -742zM1189 0v115h-339v137q78 151 267 433h226v-442h87v-128h-87v-115h-154zM989 241v-3h204v335h-3q-139 -214 -201 -332z" />
    <glyph glyph-name="onehalf" unicode="&#xbd;" horiz-adv-x="1462" 
d="M261 758v545h-3l-178 -122v142l176 120h158v-685h-153zM265 0h-174l557 761l499 682h172l-542 -742zM908 476q0 100 72.5 162.5t188.5 62.5q112 0 182 -56t70 -145q0 -53 -28 -101t-99 -115l-165 -155v-3h301v-126h-513v108l264 247q47 46 65 75.5t18 59.5
q0 39 -28.5 63.5t-73.5 24.5t-75 -29t-30 -73v-3h-149v3z" />
    <glyph glyph-name="threequarters" unicode="&#xbe;" horiz-adv-x="1572" 
d="M230 1052v113h84q46 0 73.5 24t27.5 64q0 39 -27.5 61.5t-75.5 22.5q-46 0 -75.5 -25.5t-31.5 -67.5h-147q2 98 73.5 156.5t187.5 58.5q112 0 180 -50.5t68 -133.5q0 -61 -38.5 -104.5t-103.5 -54.5v-4q78 -7 123 -51t45 -113q0 -93 -76.5 -149.5t-202.5 -56.5
q-118 0 -191 59t-78 158h154q3 -41 34.5 -65t82.5 -24q49 0 80.5 25t31.5 65q0 43 -30.5 67.5t-83.5 24.5h-84zM375 0h-174l557 761l499 682h172l-542 -742zM1299 0v115h-339v137q78 151 267 433h226v-442h87v-128h-87v-115h-154zM1099 241v-3h204v335h-3
q-139 -214 -201 -332z" />
    <glyph glyph-name="questiondown" unicode="&#xbf;" horiz-adv-x="1002" 
d="M946 32q-8 -171 -121 -280t-314 -109q-188 0 -306.5 103t-118.5 261q0 216 209 343q94 56 128 106t34 130v65h175v-92q1 -98 -46.5 -169.5t-152.5 -134.5q-87 -54 -124 -107.5t-37 -131.5q0 -96 67.5 -156.5t178.5 -60.5q112 0 180.5 62.5t76.5 170.5h171zM532 885
q-48 0 -81 33t-33 81q0 49 33 81.5t81 32.5q49 0 81.5 -32.5t32.5 -81.5q0 -48 -32.5 -81t-81.5 -33z" />
    <glyph glyph-name="Agrave" unicode="&#xc0;" horiz-adv-x="1292" 
d="M1078 0l-145 413h-574l-145 -413h-189l532 1443h178l532 -1443h-189zM643 1224l-231 -658h468l-231 658h-6zM556 1560l-260 289h194l220 -289h-154z" />
    <glyph glyph-name="Aacute" unicode="&#xc1;" horiz-adv-x="1292" 
d="M1078 0l-145 413h-574l-145 -413h-189l532 1443h178l532 -1443h-189zM643 1224l-231 -658h468l-231 658h-6zM736 1560h-154l220 289h194z" />
    <glyph glyph-name="Acircumflex" unicode="&#xc2;" horiz-adv-x="1292" 
d="M1078 0l-145 413h-574l-145 -413h-189l532 1443h178l532 -1443h-189zM643 1224l-231 -658h468l-231 658h-6zM579 1838h134l283 -298h-166l-181 192h-6l-181 -192h-166z" />
    <glyph glyph-name="Atilde" unicode="&#xc3;" horiz-adv-x="1292" 
d="M1078 0l-145 413h-574l-145 -413h-189l532 1443h178l532 -1443h-189zM643 1224l-231 -658h468l-231 658h-6zM777 1580q-45 0 -85.5 24t-65 52t-54.5 52t-56 24q-35 0 -54.5 -37t-16.5 -105h-118q0 121 51.5 188t138.5 67q39 0 73.5 -15.5t58.5 -38t45 -45t42.5 -38
t41.5 -15.5q32 0 50.5 36.5t18.5 106.5h118q0 -118 -52.5 -187t-135.5 -69z" />
    <glyph glyph-name="Adieresis" unicode="&#xc4;" horiz-adv-x="1292" 
d="M1078 0l-145 413h-574l-145 -413h-189l532 1443h178l532 -1443h-189zM643 1224l-231 -658h468l-231 658h-6zM460 1604q-45 0 -77.5 32t-32.5 78t32.5 78t77.5 32t77.5 -32t32.5 -78t-32.5 -78t-77.5 -32zM832 1604q-45 0 -77.5 32t-32.5 78t32.5 78t77.5 32t77.5 -32
t32.5 -78t-32.5 -78t-77.5 -32z" />
    <glyph glyph-name="Aring" unicode="&#xc5;" horiz-adv-x="1292" 
d="M1078 0l-145 413h-574l-145 -413h-189l532 1443h178l532 -1443h-189zM643 1224l-231 -658h468l-231 658h-6zM646 1516q-79 0 -135 56t-56 135t56 135t135 56t135 -56t56 -135t-56 -135t-135 -56zM646 1604q43 0 73 30t30 73t-30 73t-73 30t-73 -30t-30 -73t30 -73t73 -30
z" />
    <glyph glyph-name="AE" unicode="&#xc6;" horiz-adv-x="1973" 
d="M802 1292l-322 -680h482v680h-160zM962 0v459h-555l-217 -459h-185l687 1443h1144v-162h-694v-473h657v-160h-657v-486h694v-162h-874z" />
    <glyph glyph-name="Ccedilla" unicode="&#xc7;" horiz-adv-x="1405" 
d="M1333 988h-182q-35 142 -149 227.5t-268 85.5q-211 0 -338 -158t-127 -421q0 -266 126 -423t340 -157q159 0 268 73t148 205h182q-46 -197 -182 -310.5t-346 -130.5l-47 -109q99 -2 156.5 -43.5t57.5 -116.5q0 -83 -66 -129.5t-168 -48.5q-99 -2 -150 14v102
q53 -12 125 -12q127 0 127 72q0 34 -34.5 49t-111.5 15h-70v69l54 137q-274 20 -434 219t-160 525q0 340 177 542.5t473 202.5q236 0 400.5 -131.5t198.5 -347.5z" />
    <glyph glyph-name="Egrave" unicode="&#xc8;" horiz-adv-x="1131" 
d="M1034 162v-162h-894v1443h894v-162h-714v-463h677v-160h-677v-496h714zM497 1560l-260 289h194l220 -289h-154z" />
    <glyph glyph-name="Eacute" unicode="&#xc9;" horiz-adv-x="1131" 
d="M1034 162v-162h-894v1443h894v-162h-714v-463h677v-160h-677v-496h714zM677 1560h-154l220 289h194z" />
    <glyph glyph-name="Ecircumflex" unicode="&#xca;" horiz-adv-x="1131" 
d="M1034 162v-162h-894v1443h894v-162h-714v-463h677v-160h-677v-496h714zM520 1838h134l283 -298h-166l-181 192h-6l-181 -192h-166z" />
    <glyph glyph-name="Edieresis" unicode="&#xcb;" horiz-adv-x="1131" 
d="M1034 162v-162h-894v1443h894v-162h-714v-463h677v-160h-677v-496h714zM401 1604q-45 0 -77.5 32t-32.5 78t32.5 78t77.5 32t77.5 -32t32.5 -78t-32.5 -78t-77.5 -32zM773 1604q-45 0 -77.5 32t-32.5 78t32.5 78t77.5 32t77.5 -32t32.5 -78t-32.5 -78t-77.5 -32z" />
    <glyph glyph-name="Igrave" unicode="&#xcc;" horiz-adv-x="460" 
d="M320 0h-180v1443h180v-1443zM140 1560l-260 289h194l220 -289h-154z" />
    <glyph glyph-name="Iacute" unicode="&#xcd;" horiz-adv-x="460" 
d="M320 0h-180v1443h180v-1443zM320 1560h-154l220 289h194z" />
    <glyph glyph-name="Icircumflex" unicode="&#xce;" horiz-adv-x="460" 
d="M320 0h-180v1443h180v-1443zM163 1838h134l283 -298h-166l-181 192h-6l-181 -192h-166z" />
    <glyph glyph-name="Idieresis" unicode="&#xcf;" horiz-adv-x="460" 
d="M320 0h-180v1443h180v-1443zM44 1604q-45 0 -77.5 32t-32.5 78t32.5 78t77.5 32t77.5 -32t32.5 -78t-32.5 -78t-77.5 -32zM416 1604q-45 0 -77.5 32t-32.5 78t32.5 78t77.5 32t77.5 -32t32.5 -78t-32.5 -78t-77.5 -32z" />
    <glyph glyph-name="Eth" unicode="&#xd0;" horiz-adv-x="1412" 
d="M333 162h293q245 0 377 144.5t132 413.5q0 271 -131.5 416t-377.5 145h-293v-455h277v-163h-277v-501zM153 1443h485q321 0 501 -190.5t180 -530.5q0 -341 -179.5 -531.5t-501.5 -190.5h-485v663h-129v163h129v617z" />
    <glyph glyph-name="Ntilde" unicode="&#xd1;" horiz-adv-x="1432" 
d="M318 0h-178v1443h175l790 -1133h9v1133h178v-1443h-175l-790 1129h-9v-1129zM847 1580q-45 0 -85.5 24t-65 52t-54.5 52t-56 24q-35 0 -54.5 -37t-16.5 -105h-118q0 121 51.5 188t138.5 67q39 0 73.5 -15.5t58.5 -38t45 -45t42.5 -38t41.5 -15.5q32 0 50.5 36.5
t18.5 106.5h118q0 -118 -52.5 -187t-135.5 -69z" />
    <glyph glyph-name="Ograve" unicode="&#xd2;" horiz-adv-x="1498" 
d="M749 1467q307 0 486 -201t179 -545t-179 -544.5t-486 -200.5t-486 200.5t-179 544.5t179 545t486 201zM749 1301q-221 0 -350.5 -156.5t-129.5 -423.5q0 -266 129.5 -422.5t350.5 -156.5t350.5 156.5t129.5 422.5q0 267 -129.5 423.5t-350.5 156.5zM659 1560l-260 289
h194l220 -289h-154z" />
    <glyph glyph-name="Oacute" unicode="&#xd3;" horiz-adv-x="1498" 
d="M749 1467q307 0 486 -201t179 -545t-179 -544.5t-486 -200.5t-486 200.5t-179 544.5t179 545t486 201zM749 1301q-221 0 -350.5 -156.5t-129.5 -423.5q0 -266 129.5 -422.5t350.5 -156.5t350.5 156.5t129.5 422.5q0 267 -129.5 423.5t-350.5 156.5zM839 1560h-154
l220 289h194z" />
    <glyph glyph-name="Ocircumflex" unicode="&#xd4;" horiz-adv-x="1498" 
d="M749 1467q307 0 486 -201t179 -545t-179 -544.5t-486 -200.5t-486 200.5t-179 544.5t179 545t486 201zM749 1301q-221 0 -350.5 -156.5t-129.5 -423.5q0 -266 129.5 -422.5t350.5 -156.5t350.5 156.5t129.5 422.5q0 267 -129.5 423.5t-350.5 156.5zM682 1838h134
l283 -298h-166l-181 192h-6l-181 -192h-166z" />
    <glyph glyph-name="Otilde" unicode="&#xd5;" horiz-adv-x="1498" 
d="M749 1467q307 0 486 -201t179 -545t-179 -544.5t-486 -200.5t-486 200.5t-179 544.5t179 545t486 201zM749 1301q-221 0 -350.5 -156.5t-129.5 -423.5q0 -266 129.5 -422.5t350.5 -156.5t350.5 156.5t129.5 422.5q0 267 -129.5 423.5t-350.5 156.5zM880 1580
q-45 0 -85.5 24t-65 52t-54.5 52t-56 24q-35 0 -54.5 -37t-16.5 -105h-118q0 121 51.5 188t138.5 67q39 0 73.5 -15.5t58.5 -38t45 -45t42.5 -38t41.5 -15.5q32 0 50.5 36.5t18.5 106.5h118q0 -118 -52.5 -187t-135.5 -69z" />
    <glyph glyph-name="Odieresis" unicode="&#xd6;" horiz-adv-x="1498" 
d="M749 1467q307 0 486 -201t179 -545t-179 -544.5t-486 -200.5t-486 200.5t-179 544.5t179 545t486 201zM749 1301q-221 0 -350.5 -156.5t-129.5 -423.5q0 -266 129.5 -422.5t350.5 -156.5t350.5 156.5t129.5 422.5q0 267 -129.5 423.5t-350.5 156.5zM563 1604
q-45 0 -77.5 32t-32.5 78t32.5 78t77.5 32t77.5 -32t32.5 -78t-32.5 -78t-77.5 -32zM935 1604q-45 0 -77.5 32t-32.5 78t32.5 78t77.5 32t77.5 -32t32.5 -78t-32.5 -78t-77.5 -32z" />
    <glyph glyph-name="multiply" unicode="&#xd7;" horiz-adv-x="1239" 
d="M620 475l-308 -307l-104 104l307 308l-307 308l104 104l308 -307l307 307l104 -104l-306 -308l306 -308l-104 -104z" />
    <glyph glyph-name="Oslash" unicode="&#xd8;" horiz-adv-x="1498" 
d="M1135 1096l-665 -866q116 -88 279 -88q221 0 350.5 156.5t129.5 422.5q0 227 -94 375zM382 319l673 872q-122 110 -306 110q-221 0 -350.5 -156.5t-129.5 -423.5q0 -249 113 -402zM1382 1419l-132 -172q164 -198 164 -526q0 -344 -179 -544.5t-486 -200.5
q-226 0 -387 113l-104 -136l-100 76l110 142q-184 203 -184 550q0 344 179 545t486 201q249 0 415 -134l120 155z" />
    <glyph glyph-name="Ugrave" unicode="&#xd9;" horiz-adv-x="1426" 
d="M320 1443v-925q0 -167 104.5 -271.5t288.5 -104.5t288.5 104.5t104.5 271.5v925h180v-937q0 -235 -154.5 -382.5t-418.5 -147.5t-418.5 147.5t-154.5 382.5v937h180zM623 1560l-260 289h194l220 -289h-154z" />
    <glyph glyph-name="Uacute" unicode="&#xda;" horiz-adv-x="1426" 
d="M320 1443v-925q0 -167 104.5 -271.5t288.5 -104.5t288.5 104.5t104.5 271.5v925h180v-937q0 -235 -154.5 -382.5t-418.5 -147.5t-418.5 147.5t-154.5 382.5v937h180zM803 1560h-154l220 289h194z" />
    <glyph glyph-name="Ucircumflex" unicode="&#xdb;" horiz-adv-x="1426" 
d="M320 1443v-925q0 -167 104.5 -271.5t288.5 -104.5t288.5 104.5t104.5 271.5v925h180v-937q0 -235 -154.5 -382.5t-418.5 -147.5t-418.5 147.5t-154.5 382.5v937h180zM646 1838h134l283 -298h-166l-181 192h-6l-181 -192h-166z" />
    <glyph glyph-name="Udieresis" unicode="&#xdc;" horiz-adv-x="1426" 
d="M320 1443v-925q0 -167 104.5 -271.5t288.5 -104.5t288.5 104.5t104.5 271.5v925h180v-937q0 -235 -154.5 -382.5t-418.5 -147.5t-418.5 147.5t-154.5 382.5v937h180zM527 1604q-45 0 -77.5 32t-32.5 78t32.5 78t77.5 32t77.5 -32t32.5 -78t-32.5 -78t-77.5 -32zM899 1604
q-45 0 -77.5 32t-32.5 78t32.5 78t77.5 32t77.5 -32t32.5 -78t-32.5 -78t-77.5 -32z" />
    <glyph glyph-name="Yacute" unicode="&#xdd;" horiz-adv-x="1254" 
d="M717 0h-180v621l-512 822h205l394 -648h6l394 648h205l-512 -822v-621zM717 1560h-154l220 289h194z" />
    <glyph glyph-name="Thorn" unicode="&#xde;" horiz-adv-x="1232" 
d="M160 1443h180v-266h373q83 0 159 -28t134.5 -80t93.5 -131.5t35 -175.5t-35 -176t-94.5 -132t-135.5 -80.5t-159 -28.5h-371v-345h-180v1443zM340 1017v-512h322q130 0 209 66t79 191t-79 190t-209 65h-322z" />
    <glyph glyph-name="germandbls" unicode="&#xdf;" horiz-adv-x="1199" 
d="M345 0h-171v1070q0 173 111 277t297 104q178 0 291 -101.5t113 -260.5q0 -123 -59.5 -214.5t-160.5 -122.5v-4q153 -22 238 -118t85 -244q0 -181 -120 -290.5t-320 -109.5q-82 0 -140 13v152q51 -14 127 -14q129 0 205.5 68.5t76.5 183.5q0 124 -86 195t-238 71h-60v168
h50q109 0 171 68.5t62 187.5q0 98 -64.5 159.5t-167.5 61.5q-113 0 -176.5 -66t-63.5 -183v-1051z" />
    <glyph glyph-name="agrave" unicode="&#xe0;" horiz-adv-x="1028" 
d="M456 130q123 0 206.5 76.5t83.5 188.5v85l-278 -17q-105 -7 -162.5 -51t-57.5 -118t57 -119t151 -45zM417 -18q-155 0 -250.5 86t-95.5 226q0 134 98.5 214t278.5 90l298 17v87q0 95 -60 149t-168 54q-99 0 -161 -43.5t-79 -121.5h-168q9 139 120.5 228.5t291.5 89.5
q183 0 290.5 -92t107.5 -247v-719h-165v179h-4q-47 -89 -138 -143t-196 -54zM574 1190h-152l-246 300h188z" />
    <glyph glyph-name="aacute" unicode="&#xe1;" horiz-adv-x="1028" 
d="M456 130q123 0 206.5 76.5t83.5 188.5v85l-278 -17q-105 -7 -162.5 -51t-57.5 -118t57 -119t151 -45zM417 -18q-155 0 -250.5 86t-95.5 226q0 134 98.5 214t278.5 90l298 17v87q0 95 -60 149t-168 54q-99 0 -161 -43.5t-79 -121.5h-168q9 139 120.5 228.5t291.5 89.5
q183 0 290.5 -92t107.5 -247v-719h-165v179h-4q-47 -89 -138 -143t-196 -54zM589 1190h-152l210 300h188z" />
    <glyph glyph-name="acircumflex" unicode="&#xe2;" horiz-adv-x="1028" 
d="M456 130q123 0 206.5 76.5t83.5 188.5v85l-278 -17q-105 -7 -162.5 -51t-57.5 -118t57 -119t151 -45zM417 -18q-155 0 -250.5 86t-95.5 226q0 134 98.5 214t278.5 90l298 17v87q0 95 -60 149t-168 54q-99 0 -161 -43.5t-79 -121.5h-168q9 139 120.5 228.5t291.5 89.5
q183 0 290.5 -92t107.5 -247v-719h-165v179h-4q-47 -89 -138 -143t-196 -54zM577 1490l272 -300h-163l-173 192h-6l-173 -192h-163l272 300h134z" />
    <glyph glyph-name="atilde" unicode="&#xe3;" horiz-adv-x="1028" 
d="M456 130q123 0 206.5 76.5t83.5 188.5v85l-278 -17q-105 -7 -162.5 -51t-57.5 -118t57 -119t151 -45zM417 -18q-155 0 -250.5 86t-95.5 226q0 134 98.5 214t278.5 90l298 17v87q0 95 -60 149t-168 54q-99 0 -161 -43.5t-79 -121.5h-168q9 139 120.5 228.5t291.5 89.5
q183 0 290.5 -92t107.5 -247v-719h-165v179h-4q-47 -89 -138 -143t-196 -54zM645 1198q-45 0 -85.5 24t-65 52t-54.5 52t-56 24q-35 0 -54.5 -37t-16.5 -105h-118q0 121 51.5 188t138.5 67q39 0 73.5 -15.5t58.5 -38t45 -45t42.5 -38t41.5 -15.5q32 0 50.5 36.5t18.5 106.5
h118q0 -118 -52.5 -187t-135.5 -69z" />
    <glyph glyph-name="adieresis" unicode="&#xe4;" horiz-adv-x="1028" 
d="M456 130q123 0 206.5 76.5t83.5 188.5v85l-278 -17q-105 -7 -162.5 -51t-57.5 -118t57 -119t151 -45zM417 -18q-155 0 -250.5 86t-95.5 226q0 134 98.5 214t278.5 90l298 17v87q0 95 -60 149t-168 54q-99 0 -161 -43.5t-79 -121.5h-168q9 139 120.5 228.5t291.5 89.5
q183 0 290.5 -92t107.5 -247v-719h-165v179h-4q-47 -89 -138 -143t-196 -54zM324 1203q-45 0 -77.5 32t-32.5 78t32.5 78t77.5 32t77.5 -32t32.5 -78t-32.5 -78t-77.5 -32zM696 1203q-45 0 -77.5 32t-32.5 78t32.5 78t77.5 32t77.5 -32t32.5 -78t-32.5 -78t-77.5 -32z" />
    <glyph glyph-name="aring" unicode="&#xe5;" horiz-adv-x="1028" 
d="M456 130q123 0 206.5 76.5t83.5 188.5v85l-278 -17q-105 -7 -162.5 -51t-57.5 -118t57 -119t151 -45zM417 -18q-155 0 -250.5 86t-95.5 226q0 134 98.5 214t278.5 90l298 17v87q0 95 -60 149t-168 54q-99 0 -161 -43.5t-79 -121.5h-168q9 139 120.5 228.5t291.5 89.5
q183 0 290.5 -92t107.5 -247v-719h-165v179h-4q-47 -89 -138 -143t-196 -54zM510 1132q-79 0 -135 56t-56 135t56 135t135 56t135 -56t56 -135t-56 -135t-135 -56zM510 1220q43 0 73 30t30 73t-30 73t-73 30t-73 -30t-30 -73t30 -73t73 -30z" />
    <glyph glyph-name="ae" unicode="&#xe6;" horiz-adv-x="1709" 
d="M1216 -18q-127 0 -224.5 59t-149.5 163h-10q-64 -107 -163.5 -164.5t-227.5 -57.5q-172 0 -273.5 84.5t-101.5 226.5q0 135 101 213t288 87l290 15v73q0 97 -67.5 160.5t-173.5 63.5q-97 0 -158.5 -46t-69.5 -120h-170q8 139 114.5 229t277.5 90q130 0 225.5 -54.5
t133.5 -150.5h8q53 100 143 152.5t210 52.5q197 0 312.5 -141.5t115.5 -377.5v-65h-728v-11q0 -148 82 -239t218 -91q92 0 156.5 44.5t88.5 120.5h171q-23 -138 -139.5 -227t-278.5 -89zM1204 907q-120 0 -198.5 -83t-87.5 -215h549q-3 135 -74.5 216.5t-188.5 81.5z
M447 131q125 0 211.5 77.5t86.5 186.5v78l-272 -15q-111 -6 -170.5 -47.5t-59.5 -114.5t56 -119t148 -46z" />
    <glyph glyph-name="ccedilla" unicode="&#xe7;" horiz-adv-x="1026" 
d="M808 335h171q-18 -139 -117 -234t-248 -114l-50 -117q99 -2 156.5 -43.5t57.5 -116.5q0 -83 -66 -129.5t-168 -48.5q-99 -2 -150 14v102q53 -12 125 -12q127 0 127 72q0 34 -34.5 49t-111.5 15h-70v69l57 144q-195 18 -310 160.5t-115 374.5q0 245 131 391.5t347 146.5
q186 0 302.5 -105t134.5 -254h-170q-20 90 -88.5 148t-177.5 58q-136 0 -219 -104.5t-83 -280.5q0 -179 83.5 -282t220.5 -103q105 0 173.5 52.5t91.5 147.5z" />
    <glyph glyph-name="egrave" unicode="&#xe8;" horiz-adv-x="1049" 
d="M530 907q-121 0 -200.5 -83.5t-87.5 -214.5h565q-3 132 -79 215t-198 83zM803 298h171q-23 -138 -143.5 -227t-289.5 -89q-223 0 -351 144t-128 390q0 244 128.5 393t342.5 149q210 0 332 -141t122 -378v-66h-746v-10q0 -150 82 -240t222 -90q98 0 167 45t91 120z
M597 1190h-152l-246 300h188z" />
    <glyph glyph-name="eacute" unicode="&#xe9;" horiz-adv-x="1049" 
d="M530 907q-121 0 -200.5 -83.5t-87.5 -214.5h565q-3 132 -79 215t-198 83zM803 298h171q-23 -138 -143.5 -227t-289.5 -89q-223 0 -351 144t-128 390q0 244 128.5 393t342.5 149q210 0 332 -141t122 -378v-66h-746v-10q0 -150 82 -240t222 -90q98 0 167 45t91 120z
M612 1190h-152l210 300h188z" />
    <glyph glyph-name="ecircumflex" unicode="&#xea;" horiz-adv-x="1049" 
d="M530 907q-121 0 -200.5 -83.5t-87.5 -214.5h565q-3 132 -79 215t-198 83zM803 298h171q-23 -138 -143.5 -227t-289.5 -89q-223 0 -351 144t-128 390q0 244 128.5 393t342.5 149q210 0 332 -141t122 -378v-66h-746v-10q0 -150 82 -240t222 -90q98 0 167 45t91 120z
M600 1490l272 -300h-163l-173 192h-6l-173 -192h-163l272 300h134z" />
    <glyph glyph-name="edieresis" unicode="&#xeb;" horiz-adv-x="1049" 
d="M530 907q-121 0 -200.5 -83.5t-87.5 -214.5h565q-3 132 -79 215t-198 83zM803 298h171q-23 -138 -143.5 -227t-289.5 -89q-223 0 -351 144t-128 390q0 244 128.5 393t342.5 149q210 0 332 -141t122 -378v-66h-746v-10q0 -150 82 -240t222 -90q98 0 167 45t91 120z
M347 1203q-45 0 -77.5 32t-32.5 78t32.5 78t77.5 32t77.5 -32t32.5 -78t-32.5 -78t-77.5 -32zM719 1203q-45 0 -77.5 32t-32.5 78t32.5 78t77.5 32t77.5 -32t32.5 -78t-32.5 -78t-77.5 -32z" />
    <glyph glyph-name="igrave" unicode="&#xec;" horiz-adv-x="418" 
d="M122 0v1040h174v-1040h-174zM273 1190h-152l-246 300h188z" />
    <glyph glyph-name="iacute" unicode="&#xed;" horiz-adv-x="418" 
d="M122 0v1040h174v-1040h-174zM288 1190h-152l210 300h188z" />
    <glyph glyph-name="icircumflex" unicode="&#xee;" horiz-adv-x="418" 
d="M122 0v1040h174v-1040h-174zM276 1490l272 -300h-163l-173 192h-6l-173 -192h-163l272 300h134z" />
    <glyph glyph-name="idieresis" unicode="&#xef;" horiz-adv-x="418" 
d="M122 0v1040h174v-1040h-174zM23 1203q-45 0 -77.5 32t-32.5 78t32.5 78t77.5 32t77.5 -32t32.5 -78t-32.5 -78t-77.5 -32zM395 1203q-45 0 -77.5 32t-32.5 78t32.5 78t77.5 32t77.5 -32t32.5 -78t-32.5 -78t-77.5 -32z" />
    <glyph glyph-name="eth" unicode="&#xf0;" horiz-adv-x="1117" 
d="M558 -18q-221 0 -349 139t-128 380q0 236 123.5 376.5t329.5 140.5q88 0 171 -46t117 -114h15q-21 81 -70 174t-105 160l-268 -87l-35 110l222 72q-63 72 -195 183h207q74 -62 138 -134l242 79l35 -110l-195 -62q214 -295 214 -691q0 -264 -126 -417t-343 -153zM559 866
q-137 0 -218.5 -99t-81.5 -266t81.5 -266.5t218.5 -99.5q138 0 220 99.5t82 266.5q0 165 -82.5 265t-219.5 100z" />
    <glyph glyph-name="ntilde" unicode="&#xf1;" horiz-adv-x="1079" 
d="M113 0v1040h164v-166h4q45 87 129 135.5t201 48.5q170 0 265 -102.5t95 -280.5v-675h-174v644q0 127 -60 193.5t-179 66.5q-123 0 -197 -80t-74 -212v-612h-174zM677 1198q-45 0 -85.5 24t-65 52t-54.5 52t-56 24q-35 0 -54.5 -37t-16.5 -105h-118q0 121 51.5 188
t138.5 67q39 0 73.5 -15.5t58.5 -38t45 -45t42.5 -38t41.5 -15.5q32 0 50.5 36.5t18.5 106.5h118q0 -118 -52.5 -187t-135.5 -69z" />
    <glyph glyph-name="ograve" unicode="&#xf2;" horiz-adv-x="1087" 
d="M544 -18q-218 0 -350 145.5t-132 392.5t132 392.5t350 145.5q217 0 349 -145.5t132 -392.5q0 -246 -132 -392t-349 -146zM544 135q140 0 222 101.5t82 283.5t-82 283.5t-222 101.5t-222.5 -102t-82.5 -283t82.5 -283t222.5 -102zM608 1190h-152l-246 300h188z" />
    <glyph glyph-name="oacute" unicode="&#xf3;" horiz-adv-x="1087" 
d="M544 -18q-218 0 -350 145.5t-132 392.5t132 392.5t350 145.5q217 0 349 -145.5t132 -392.5q0 -246 -132 -392t-349 -146zM544 135q140 0 222 101.5t82 283.5t-82 283.5t-222 101.5t-222.5 -102t-82.5 -283t82.5 -283t222.5 -102zM623 1190h-152l210 300h188z" />
    <glyph glyph-name="ocircumflex" unicode="&#xf4;" horiz-adv-x="1087" 
d="M544 -18q-218 0 -350 145.5t-132 392.5t132 392.5t350 145.5q217 0 349 -145.5t132 -392.5q0 -246 -132 -392t-349 -146zM544 135q140 0 222 101.5t82 283.5t-82 283.5t-222 101.5t-222.5 -102t-82.5 -283t82.5 -283t222.5 -102zM611 1490l272 -300h-163l-173 192h-6
l-173 -192h-163l272 300h134z" />
    <glyph glyph-name="otilde" unicode="&#xf5;" horiz-adv-x="1087" 
d="M544 -18q-218 0 -350 145.5t-132 392.5t132 392.5t350 145.5q217 0 349 -145.5t132 -392.5q0 -246 -132 -392t-349 -146zM544 135q140 0 222 101.5t82 283.5t-82 283.5t-222 101.5t-222.5 -102t-82.5 -283t82.5 -283t222.5 -102zM679 1198q-45 0 -85.5 24t-65 52
t-54.5 52t-56 24q-35 0 -54.5 -37t-16.5 -105h-118q0 121 51.5 188t138.5 67q39 0 73.5 -15.5t58.5 -38t45 -45t42.5 -38t41.5 -15.5q32 0 50.5 36.5t18.5 106.5h118q0 -118 -52.5 -187t-135.5 -69z" />
    <glyph glyph-name="odieresis" unicode="&#xf6;" horiz-adv-x="1087" 
d="M544 -18q-218 0 -350 145.5t-132 392.5t132 392.5t350 145.5q217 0 349 -145.5t132 -392.5q0 -246 -132 -392t-349 -146zM544 135q140 0 222 101.5t82 283.5t-82 283.5t-222 101.5t-222.5 -102t-82.5 -283t82.5 -283t222.5 -102zM358 1203q-45 0 -77.5 32t-32.5 78
t32.5 78t77.5 32t77.5 -32t32.5 -78t-32.5 -78t-77.5 -32zM730 1203q-45 0 -77.5 32t-32.5 78t32.5 78t77.5 32t77.5 -32t32.5 -78t-32.5 -78t-77.5 -32z" />
    <glyph glyph-name="divide" unicode="&#xf7;" horiz-adv-x="1239" 
d="M620 802q-54 0 -89.5 35t-35.5 90q0 54 35.5 89.5t89.5 35.5q53 0 89 -35.5t36 -89.5t-35.5 -89.5t-89.5 -35.5zM620 88q-54 0 -89.5 35t-35.5 90q0 54 35.5 89.5t89.5 35.5q53 0 89 -35.5t36 -89.5t-35.5 -89.5t-89.5 -35.5zM1128 496h-1017v148h1017v-148z" />
    <glyph glyph-name="oslash" unicode="&#xf8;" horiz-adv-x="1087" 
d="M788 772l-402 -594q69 -43 158 -43q140 0 222 101.5t82 283.5q0 153 -60 252zM302 265l405 593q-70 47 -163 47q-140 0 -222.5 -102t-82.5 -283q0 -158 63 -255zM954 1019l-67 -100q138 -148 138 -399q0 -246 -132 -392t-349 -146q-139 0 -248 63l-55 -82l-100 66l61 90
q-140 146 -140 401q0 247 132 392.5t350 145.5q144 0 254 -67l60 89z" />
    <glyph glyph-name="ugrave" unicode="&#xf9;" horiz-adv-x="1079" 
d="M967 1040v-1040h-165v169h-4q-97 -187 -330 -187q-169 0 -264.5 102.5t-95.5 280.5v675h174v-644q0 -260 240 -260q126 0 198.5 79.5t72.5 213.5v611h174zM601 1190h-152l-246 300h188z" />
    <glyph glyph-name="uacute" unicode="&#xfa;" horiz-adv-x="1079" 
d="M967 1040v-1040h-165v169h-4q-97 -187 -330 -187q-169 0 -264.5 102.5t-95.5 280.5v675h174v-644q0 -260 240 -260q126 0 198.5 79.5t72.5 213.5v611h174zM616 1190h-152l210 300h188z" />
    <glyph glyph-name="ucircumflex" unicode="&#xfb;" horiz-adv-x="1079" 
d="M967 1040v-1040h-165v169h-4q-97 -187 -330 -187q-169 0 -264.5 102.5t-95.5 280.5v675h174v-644q0 -260 240 -260q126 0 198.5 79.5t72.5 213.5v611h174zM604 1490l272 -300h-163l-173 192h-6l-173 -192h-163l272 300h134z" />
    <glyph glyph-name="udieresis" unicode="&#xfc;" horiz-adv-x="1079" 
d="M967 1040v-1040h-165v169h-4q-97 -187 -330 -187q-169 0 -264.5 102.5t-95.5 280.5v675h174v-644q0 -260 240 -260q126 0 198.5 79.5t72.5 213.5v611h174zM351 1203q-45 0 -77.5 32t-32.5 78t32.5 78t77.5 32t77.5 -32t32.5 -78t-32.5 -78t-77.5 -32zM723 1203
q-45 0 -77.5 32t-32.5 78t32.5 78t77.5 32t77.5 -32t32.5 -78t-32.5 -78t-77.5 -32z" />
    <glyph glyph-name="yacute" unicode="&#xfd;" horiz-adv-x="995" 
d="M199 -389q-46 0 -75 6v146q24 -5 68 -5q73 0 117 38.5t74 129.5l24 73l-384 1041h186l288 -866h3l288 866h183l-409 -1113q-67 -182 -144.5 -249t-218.5 -67zM577 1190h-152l210 300h188z" />
    <glyph glyph-name="thorn" unicode="&#xfe;" horiz-adv-x="1133" 
d="M634 1058q199 0 317.5 -146t118.5 -392q0 -244 -119 -391t-317 -147q-111 0 -197 46t-128 128h-15v-502h-172v1789h165v-577h15q50 90 138 141t194 51zM591 135q142 0 221.5 102.5t79.5 282.5t-79.5 282.5t-220.5 102.5q-139 0 -220.5 -103.5t-81.5 -281.5
q0 -177 81.5 -281t219.5 -104z" />
    <glyph glyph-name="ydieresis" unicode="&#xff;" horiz-adv-x="995" 
d="M199 -389q-46 0 -75 6v146q24 -5 68 -5q73 0 117 38.5t74 129.5l24 73l-384 1041h186l288 -866h3l288 866h183l-409 -1113q-67 -182 -144.5 -249t-218.5 -67zM312 1203q-45 0 -77.5 32t-32.5 78t32.5 78t77.5 32t77.5 -32t32.5 -78t-32.5 -78t-77.5 -32zM684 1203
q-45 0 -77.5 32t-32.5 78t32.5 78t77.5 32t77.5 -32t32.5 -78t-32.5 -78t-77.5 -32z" />
    <glyph glyph-name="Amacron" unicode="&#x100;" horiz-adv-x="1292" 
d="M1078 0l-145 413h-574l-145 -413h-189l532 1443h178l532 -1443h-189zM643 1224l-231 -658h468l-231 658h-6zM963 1750v-116h-634v116h634z" />
    <glyph glyph-name="amacron" unicode="&#x101;" horiz-adv-x="1028" 
d="M456 130q123 0 206.5 76.5t83.5 188.5v85l-278 -17q-105 -7 -162.5 -51t-57.5 -118t57 -119t151 -45zM417 -18q-155 0 -250.5 86t-95.5 226q0 134 98.5 214t278.5 90l298 17v87q0 95 -60 149t-168 54q-99 0 -161 -43.5t-79 -121.5h-168q9 139 120.5 228.5t291.5 89.5
q183 0 290.5 -92t107.5 -247v-719h-165v179h-4q-47 -89 -138 -143t-196 -54zM797 1370v-116h-574v116h574z" />
    <glyph glyph-name="Abreve" unicode="&#x102;" horiz-adv-x="1292" 
d="M1078 0l-145 413h-574l-145 -413h-189l532 1443h178l532 -1443h-189zM643 1224l-231 -658h468l-231 658h-6zM325 1848h127q9 -90 62 -142t132 -52t132 52t62 142h127q-10 -129 -96.5 -217.5t-224.5 -88.5t-224.5 88.5t-96.5 217.5z" />
    <glyph glyph-name="abreve" unicode="&#x103;" horiz-adv-x="1028" 
d="M456 130q123 0 206.5 76.5t83.5 188.5v85l-278 -17q-105 -7 -162.5 -51t-57.5 -118t57 -119t151 -45zM417 -18q-155 0 -250.5 86t-95.5 226q0 134 98.5 214t278.5 90l298 17v87q0 95 -60 149t-168 54q-99 0 -161 -43.5t-79 -121.5h-168q9 139 120.5 228.5t291.5 89.5
q183 0 290.5 -92t107.5 -247v-719h-165v179h-4q-47 -89 -138 -143t-196 -54zM187 1490h126q0 -91 55 -146.5t141 -55.5t141 55.5t55 146.5h126q0 -138 -87.5 -224t-234.5 -86t-234.5 86t-87.5 224z" />
    <glyph glyph-name="Aogonek" unicode="&#x104;" horiz-adv-x="1292" 
d="M643 1224l-231 -658h468l-231 658h-6zM1252 -413q-34 -17 -118 -17q-99 0 -163.5 52t-64.5 136q0 146 168 253l-141 402h-574l-145 -413h-189l532 1443h178l531 -1440l-9 -4q-100 -44 -152.5 -97t-52.5 -106q0 -47 33.5 -72t85.5 -25q38 0 81 9v-121z" />
    <glyph glyph-name="aogonek" unicode="&#x105;" horiz-adv-x="1028" 
d="M456 130q123 0 206.5 76.5t83.5 188.5v83l-278 -17q-105 -7 -162.5 -50.5t-57.5 -116.5q0 -74 57 -119t151 -45zM915 -395q-34 -17 -116 -17q-97 0 -160 50t-63 132q0 83 52 147t127 105v157h-4q-47 -89 -138 -143.5t-196 -54.5q-155 0 -250.5 86.5t-95.5 226.5
q0 134 98.5 213t278.5 89l298 17v86q0 94 -59 146t-166 52q-96 0 -159.5 -42t-78.5 -116h-166q4 134 119.5 222.5t287.5 88.5q179 0 287.5 -92t108.5 -244v-716l-8 -3q-79 -30 -134.5 -78.5t-55.5 -106.5q0 -46 31.5 -71t81.5 -25q37 0 80 9v-118z" />
    <glyph glyph-name="Cacute" unicode="&#x106;" horiz-adv-x="1405" 
d="M734 -24q-299 0 -474.5 201.5t-175.5 544.5q0 340 177 542.5t473 202.5q236 0 400.5 -131.5t198.5 -347.5h-182q-35 142 -149 227.5t-268 85.5q-211 0 -338 -158t-127 -421q0 -266 126 -423t340 -157q159 0 268 73t148 205h182q-50 -214 -205 -329t-394 -115zM824 1562
h-154l220 289h194z" />
    <glyph glyph-name="cacute" unicode="&#x107;" horiz-adv-x="1026" 
d="M977 699h-170q-20 90 -88.5 148t-177.5 58q-136 0 -219 -104.5t-83 -280.5q0 -179 83.5 -282t220.5 -103q105 0 173.5 52.5t91.5 147.5h171q-20 -156 -140.5 -254.5t-296.5 -98.5q-218 0 -349 144.5t-131 393.5q0 245 131 391.5t347 146.5q186 0 302.5 -105t134.5 -254z
M617 1190h-152l210 300h188z" />
    <glyph glyph-name="Ccircumflex" unicode="&#x108;" horiz-adv-x="1405" 
d="M734 -24q-299 0 -474.5 201.5t-175.5 544.5q0 340 177 542.5t473 202.5q236 0 400.5 -131.5t198.5 -347.5h-182q-35 142 -149 227.5t-268 85.5q-211 0 -338 -158t-127 -421q0 -266 126 -423t340 -157q159 0 268 73t148 205h182q-50 -214 -205 -329t-394 -115zM667 1840
h134l283 -298h-166l-181 192h-6l-181 -192h-166z" />
    <glyph glyph-name="ccircumflex" unicode="&#x109;" horiz-adv-x="1026" 
d="M977 699h-170q-20 90 -88.5 148t-177.5 58q-136 0 -219 -104.5t-83 -280.5q0 -179 83.5 -282t220.5 -103q105 0 173.5 52.5t91.5 147.5h171q-20 -156 -140.5 -254.5t-296.5 -98.5q-218 0 -349 144.5t-131 393.5q0 245 131 391.5t347 146.5q186 0 302.5 -105t134.5 -254z
M605 1490l272 -300h-163l-173 192h-6l-173 -192h-163l272 300h134z" />
    <glyph glyph-name="Cdotaccent" unicode="&#x10a;" horiz-adv-x="1405" 
d="M734 -24q-299 0 -474.5 201.5t-175.5 544.5q0 340 177 542.5t473 202.5q236 0 400.5 -131.5t198.5 -347.5h-182q-35 142 -149 227.5t-268 85.5q-211 0 -338 -158t-127 -421q0 -266 126 -423t340 -157q159 0 268 73t148 205h182q-50 -214 -205 -329t-394 -115zM734 1587
q-50 0 -85.5 35.5t-35.5 85.5t35.5 85.5t85.5 35.5t85.5 -35.5t35.5 -85.5t-35.5 -85.5t-85.5 -35.5z" />
    <glyph glyph-name="cdotaccent" unicode="&#x10b;" horiz-adv-x="1026" 
d="M977 699h-170q-20 90 -88.5 148t-177.5 58q-136 0 -219 -104.5t-83 -280.5q0 -179 83.5 -282t220.5 -103q105 0 173.5 52.5t91.5 147.5h171q-20 -156 -140.5 -254.5t-296.5 -98.5q-218 0 -349 144.5t-131 393.5q0 245 131 391.5t347 146.5q186 0 302.5 -105t134.5 -254z
M538 1201q-51 0 -87.5 36.5t-36.5 87.5t36.5 87.5t87.5 36.5t87.5 -36.5t36.5 -87.5t-36.5 -87.5t-87.5 -36.5z" />
    <glyph glyph-name="Ccaron" unicode="&#x10c;" horiz-adv-x="1405" 
d="M734 -24q-299 0 -474.5 201.5t-175.5 544.5q0 340 177 542.5t473 202.5q236 0 400.5 -131.5t198.5 -347.5h-182q-35 142 -149 227.5t-268 85.5q-211 0 -338 -158t-127 -421q0 -266 126 -423t340 -157q159 0 268 73t148 205h182q-50 -214 -205 -329t-394 -115zM667 1552
l-283 298h166l181 -192h6l181 192h166l-283 -298h-134z" />
    <glyph glyph-name="ccaron" unicode="&#x10d;" horiz-adv-x="1026" 
d="M977 699h-170q-20 90 -88.5 148t-177.5 58q-136 0 -219 -104.5t-83 -280.5q0 -179 83.5 -282t220.5 -103q105 0 173.5 52.5t91.5 147.5h171q-20 -156 -140.5 -254.5t-296.5 -98.5q-218 0 -349 144.5t-131 393.5q0 245 131 391.5t347 146.5q186 0 302.5 -105t134.5 -254z
M605 1190h-134l-272 300h163l173 -196h6l173 196h163z" />
    <glyph glyph-name="Dcaron" unicode="&#x10e;" horiz-adv-x="1389" 
d="M140 1443h485q321 0 501 -190.5t180 -530.5q0 -341 -179.5 -531.5t-501.5 -190.5h-485v1443zM320 1281v-1119h293q245 0 377 144.5t132 413.5q0 271 -131.5 416t-377.5 145h-293zM483 1550l-283 298h166l181 -192h6l181 192h166l-283 -298h-134z" />
    <glyph glyph-name="dcaron" unicode="&#x10f;" horiz-adv-x="1287" 
d="M1158 1443h139l-30 -471h-109v471zM507 -18q-200 0 -322.5 147t-122.5 391q0 243 122 390.5t319 147.5q110 0 197 -50t134 -137h4v572h174v-1443h-166v176h-3q-51 -91 -138 -142.5t-198 -51.5zM540 905q-138 0 -219 -104.5t-81 -280.5q0 -177 81 -281t219 -104
q135 0 217 105.5t82 279.5t-82.5 279.5t-216.5 105.5z" />
    <glyph glyph-name="Dcroat" unicode="&#x110;" horiz-adv-x="1402" 
d="M333 162h293q245 0 377 144.5t132 413.5q0 271 -131.5 416t-377.5 145h-293v-455h277v-163h-277v-501zM153 1443h485q321 0 501 -190.5t180 -530.5q0 -341 -179.5 -531.5t-501.5 -190.5h-485v663h-129v163h129v617z" />
    <glyph glyph-name="dcroat" unicode="&#x111;" horiz-adv-x="1152" 
d="M540 144q134 0 216.5 103.5t82.5 272.5q0 168 -82.5 272t-216.5 104q-135 0 -217.5 -103t-82.5 -273q0 -171 82.5 -273.5t217.5 -102.5zM1138 1341v-121h-126v-1220h-166v176h-3q-50 -90 -137 -138t-199 -48q-197 0 -321 146.5t-124 383.5t123 383.5t318 146.5
q112 0 198 -46.5t133 -132.5h4v349h-239v121h239v102h174v-102h126z" />
    <glyph glyph-name="Emacron" unicode="&#x112;" horiz-adv-x="1131" 
d="M1034 162v-162h-894v1443h894v-162h-714v-463h677v-160h-677v-496h714zM904 1750v-116h-634v116h634z" />
    <glyph glyph-name="emacron" unicode="&#x113;" horiz-adv-x="1049" 
d="M530 907q-121 0 -200.5 -83.5t-87.5 -214.5h565q-3 132 -79 215t-198 83zM803 298h171q-23 -138 -143.5 -227t-289.5 -89q-223 0 -351 144t-128 390q0 244 128.5 393t342.5 149q210 0 332 -141t122 -378v-66h-746v-10q0 -150 82 -240t222 -90q98 0 167 45t91 120z
M820 1370v-116h-574v116h574z" />
    <glyph glyph-name="Ebreve" unicode="&#x114;" horiz-adv-x="1131" 
d="M1034 162v-162h-894v1443h894v-162h-714v-463h677v-160h-677v-496h714zM266 1848h127q9 -90 62 -142t132 -52t132 52t62 142h127q-10 -129 -96.5 -217.5t-224.5 -88.5t-224.5 88.5t-96.5 217.5z" />
    <glyph glyph-name="ebreve" unicode="&#x115;" horiz-adv-x="1049" 
d="M530 907q-121 0 -200.5 -83.5t-87.5 -214.5h565q-3 132 -79 215t-198 83zM803 298h171q-23 -138 -143.5 -227t-289.5 -89q-223 0 -351 144t-128 390q0 244 128.5 393t342.5 149q210 0 332 -141t122 -378v-66h-746v-10q0 -150 82 -240t222 -90q98 0 167 45t91 120z
M210 1490h126q0 -91 55 -146.5t141 -55.5t141 55.5t55 146.5h126q0 -138 -87.5 -224t-234.5 -86t-234.5 86t-87.5 224z" />
    <glyph glyph-name="Edotaccent" unicode="&#x116;" horiz-adv-x="1131" 
d="M1034 162v-162h-894v1443h894v-162h-714v-463h677v-160h-677v-496h714zM587 1585q-50 0 -85.5 35.5t-35.5 85.5t35.5 85.5t85.5 35.5t85.5 -35.5t35.5 -85.5t-35.5 -85.5t-85.5 -35.5z" />
    <glyph glyph-name="edotaccent" unicode="&#x117;" horiz-adv-x="1049" 
d="M530 907q-121 0 -200.5 -83.5t-87.5 -214.5h565q-3 132 -79 215t-198 83zM803 298h171q-23 -138 -143.5 -227t-289.5 -89q-223 0 -351 144t-128 390q0 244 128.5 393t342.5 149q210 0 332 -141t122 -378v-66h-746v-10q0 -150 82 -240t222 -90q98 0 167 45t91 120z
M533 1201q-51 0 -87.5 36.5t-36.5 87.5t36.5 87.5t87.5 36.5t87.5 -36.5t36.5 -87.5t-36.5 -87.5t-87.5 -36.5z" />
    <glyph glyph-name="Eogonek" unicode="&#x118;" horiz-adv-x="1131" 
d="M140 0v1443h894v-162h-714v-463h677v-160h-677v-496h714v-148l-20 -8q-105 -42 -163.5 -99t-58.5 -111q0 -47 33.5 -72t85.5 -25q38 0 81 9v-121q-34 -17 -118 -17q-99 0 -163.5 52t-64.5 136q0 128 144 238v4h-650z" />
    <glyph glyph-name="eogonek" unicode="&#x119;" horiz-adv-x="1049" 
d="M706 -412q-97 0 -160.5 50t-63.5 131q0 116 129 216v4q-27 -7 -70 -7q-223 0 -351 144t-128 390q0 244 128.5 393t342.5 149q210 0 332 -141t122 -378v-66h-746v-10q0 -150 82 -240t222 -90q98 0 167 45t91 120h171q-15 -84 -65.5 -148t-129.5 -126q-153 -119 -153 -214
q0 -46 33 -71t83 -25q37 0 80 9v-118q-34 -17 -116 -17zM530 907q-121 0 -200.5 -83.5t-87.5 -214.5h565q-3 132 -79 215t-198 83z" />
    <glyph glyph-name="Ecaron" unicode="&#x11a;" horiz-adv-x="1131" 
d="M1034 162v-162h-894v1443h894v-162h-714v-463h677v-160h-677v-496h714zM520 1550l-283 298h166l181 -192h6l181 192h166l-283 -298h-134z" />
    <glyph glyph-name="ecaron" unicode="&#x11b;" horiz-adv-x="1049" 
d="M530 907q-121 0 -200.5 -83.5t-87.5 -214.5h565q-3 132 -79 215t-198 83zM803 298h171q-23 -138 -143.5 -227t-289.5 -89q-223 0 -351 144t-128 390q0 244 128.5 393t342.5 149q210 0 332 -141t122 -378v-66h-746v-10q0 -150 82 -240t222 -90q98 0 167 45t91 120z
M600 1190h-134l-272 300h163l173 -196h6l173 196h163z" />
    <glyph glyph-name="Gcircumflex" unicode="&#x11c;" horiz-adv-x="1447" 
d="M1357 597q0 -293 -161.5 -457t-450.5 -164q-302 0 -481.5 204.5t-179.5 548.5q0 338 179 538t482 200q234 0 398.5 -128.5t204.5 -343.5h-189q-45 146 -153.5 226t-260.5 80q-223 0 -349.5 -151.5t-126.5 -419.5q0 -272 128 -430t348 -158q192 0 312 113.5t120 294.5v26
h-407v158h587v-137zM678 1838h134l283 -298h-166l-181 192h-6l-181 -192h-166z" />
    <glyph glyph-name="gcircumflex" unicode="&#x11d;" horiz-adv-x="1125" 
d="M536 145q136 0 219 104t83 275q0 172 -83 276.5t-219 104.5q-135 0 -215.5 -103.5t-80.5 -277.5t80.5 -276.5t215.5 -102.5zM542 -392q-171 0 -294 86.5t-145 219.5h179q26 -72 98 -115t169 -43q134 0 211.5 71t77.5 188v164h-4q-49 -86 -137 -136.5t-196 -50.5
q-199 0 -319 145t-120 387q0 244 120.5 389t322.5 145q110 0 198 -51t140 -142h3v175h166v-1019q0 -187 -128 -300t-342 -113zM605 1490l272 -300h-163l-173 192h-6l-173 -192h-163l272 300h134z" />
    <glyph glyph-name="Gbreve" unicode="&#x11e;" horiz-adv-x="1447" 
d="M1357 597q0 -293 -161.5 -457t-450.5 -164q-302 0 -481.5 204.5t-179.5 548.5q0 338 179 538t482 200q234 0 398.5 -128.5t204.5 -343.5h-189q-45 146 -153.5 226t-260.5 80q-223 0 -349.5 -151.5t-126.5 -419.5q0 -272 128 -430t348 -158q192 0 312 113.5t120 294.5v26
h-407v158h587v-137zM424 1848h127q9 -90 62 -142t132 -52t132 52t62 142h127q-10 -129 -96.5 -217.5t-224.5 -88.5t-224.5 88.5t-96.5 217.5z" />
    <glyph glyph-name="gbreve" unicode="&#x11f;" horiz-adv-x="1125" 
d="M536 145q136 0 219 104t83 275q0 172 -83 276.5t-219 104.5q-135 0 -215.5 -103.5t-80.5 -277.5t80.5 -276.5t215.5 -102.5zM542 -392q-171 0 -294 86.5t-145 219.5h179q26 -72 98 -115t169 -43q134 0 211.5 71t77.5 188v164h-4q-49 -86 -137 -136.5t-196 -50.5
q-199 0 -319 145t-120 387q0 244 120.5 389t322.5 145q110 0 198 -51t140 -142h3v175h166v-1019q0 -187 -128 -300t-342 -113zM215 1490h126q0 -91 55 -146.5t141 -55.5t141 55.5t55 146.5h126q0 -138 -87.5 -224t-234.5 -86t-234.5 86t-87.5 224z" />
    <glyph glyph-name="Gdotaccent" unicode="&#x120;" horiz-adv-x="1447" 
d="M1357 597q0 -293 -161.5 -457t-450.5 -164q-302 0 -481.5 204.5t-179.5 548.5q0 338 179 538t482 200q234 0 398.5 -128.5t204.5 -343.5h-189q-45 146 -153.5 226t-260.5 80q-223 0 -349.5 -151.5t-126.5 -419.5q0 -272 128 -430t348 -158q192 0 312 113.5t120 294.5v26
h-407v158h587v-137zM745 1585q-50 0 -85.5 35.5t-35.5 85.5t35.5 85.5t85.5 35.5t85.5 -35.5t35.5 -85.5t-35.5 -85.5t-85.5 -35.5z" />
    <glyph glyph-name="gdotaccent" unicode="&#x121;" horiz-adv-x="1125" 
d="M536 145q136 0 219 104t83 275q0 172 -83 276.5t-219 104.5q-135 0 -215.5 -103.5t-80.5 -277.5t80.5 -276.5t215.5 -102.5zM542 -392q-171 0 -294 86.5t-145 219.5h179q26 -72 98 -115t169 -43q134 0 211.5 71t77.5 188v164h-4q-49 -86 -137 -136.5t-196 -50.5
q-199 0 -319 145t-120 387q0 244 120.5 389t322.5 145q110 0 198 -51t140 -142h3v175h166v-1019q0 -187 -128 -300t-342 -113zM538 1201q-51 0 -87.5 36.5t-36.5 87.5t36.5 87.5t87.5 36.5t87.5 -36.5t36.5 -87.5t-36.5 -87.5t-87.5 -36.5z" />
    <glyph glyph-name="Gcommaaccent" unicode="&#x122;" horiz-adv-x="1447" 
d="M1357 597q0 -293 -161.5 -457t-450.5 -164q-302 0 -481.5 204.5t-179.5 548.5q0 338 179 538t482 200q234 0 398.5 -128.5t204.5 -343.5h-189q-45 146 -153.5 226t-260.5 80q-223 0 -349.5 -151.5t-126.5 -419.5q0 -272 128 -430t348 -158q192 0 312 113.5t120 294.5v26
h-407v158h587v-137zM717 -486h-126l108 359h152z" />
    <glyph glyph-name="gcommaaccent" unicode="&#x123;" horiz-adv-x="1125" 
d="M536 145q136 0 219 104t83 275q0 172 -83 276.5t-219 104.5q-135 0 -215.5 -103.5t-80.5 -277.5t80.5 -276.5t215.5 -102.5zM542 -392q-171 0 -294 86.5t-145 219.5h179q26 -72 98 -115t169 -43q134 0 211.5 71t77.5 188v164h-4q-49 -86 -137 -136.5t-196 -50.5
q-199 0 -319 145t-120 387q0 244 120.5 389t322.5 145q110 0 198 -51t140 -142h3v175h166v-1019q0 -187 -128 -300t-342 -113zM566 1526h126l-108 -359h-152z" />
    <glyph glyph-name="Hcircumflex" unicode="&#x124;" horiz-adv-x="1432" 
d="M1292 0h-180v657h-792v-657h-180v1443h180v-624h792v624h180v-1443zM649 1838h134l283 -298h-166l-181 192h-6l-181 -192h-166z" />
    <glyph glyph-name="hcircumflex" unicode="&#x125;" horiz-adv-x="1104" 
d="M122 0v1443h174v-569h4q44 88 128.5 136t201.5 48q170 0 268 -105t98 -281v-672h-174v640q0 126 -62.5 195t-183.5 69q-129 0 -204.5 -81t-75.5 -217v-606h-174zM143 1838h134l283 -298h-166l-181 192h-6l-181 -192h-166z" />
    <glyph glyph-name="Hbar" unicode="&#x126;" horiz-adv-x="1432" 
d="M1112 819v256h-792v-256h792zM1427 1218v-143h-135v-1075h-180v657h-792v-657h-180v1075h-135v143h135v225h180v-225h792v225h180v-225h135z" />
    <glyph glyph-name="hbar" unicode="&#x127;" horiz-adv-x="1104" 
d="M296 874h4q44 88 128.5 136t201.5 48q170 0 268 -105t98 -281v-672h-174v640q0 126 -62.5 195t-183.5 69q-129 0 -204.5 -81t-75.5 -217v-606h-174v1220h-108v121h108v102h174v-102h256v-121h-256v-346z" />
    <glyph glyph-name="Itilde" unicode="&#x128;" horiz-adv-x="460" 
d="M320 0h-180v1443h180v-1443zM361 1580q-45 0 -85.5 24t-65 52t-54.5 52t-56 24q-35 0 -54.5 -37t-16.5 -105h-118q0 121 51.5 188t138.5 67q39 0 73.5 -15.5t58.5 -38t45 -45t42.5 -38t41.5 -15.5q32 0 50.5 36.5t18.5 106.5h118q0 -118 -52.5 -187t-135.5 -69z" />
    <glyph glyph-name="itilde" unicode="&#x129;" horiz-adv-x="418" 
d="M122 0v1040h174v-1040h-174zM344 1198q-45 0 -85.5 24t-65 52t-54.5 52t-56 24q-35 0 -54.5 -37t-16.5 -105h-118q0 121 51.5 188t138.5 67q39 0 73.5 -15.5t58.5 -38t45 -45t42.5 -38t41.5 -15.5q32 0 50.5 36.5t18.5 106.5h118q0 -118 -52.5 -187t-135.5 -69z" />
    <glyph glyph-name="Imacron" unicode="&#x12a;" horiz-adv-x="460" 
d="M320 0h-180v1443h180v-1443zM547 1750v-116h-634v116h634z" />
    <glyph glyph-name="imacron" unicode="&#x12b;" horiz-adv-x="418" 
d="M122 0v1040h174v-1040h-174zM453 1370v-116h-488v116h488z" />
    <glyph glyph-name="Ibreve" unicode="&#x12c;" horiz-adv-x="460" 
d="M320 0h-180v1443h180v-1443zM-91 1848h127q9 -90 62 -142t132 -52t132 52t62 142h127q-10 -129 -96.5 -217.5t-224.5 -88.5t-224.5 88.5t-96.5 217.5z" />
    <glyph glyph-name="ibreve" unicode="&#x12d;" horiz-adv-x="418" 
d="M122 0v1040h174v-1040h-174zM-114 1490h126q0 -91 55 -146.5t141 -55.5t141 55.5t55 146.5h126q0 -138 -87.5 -224t-234.5 -86t-234.5 86t-87.5 224z" />
    <glyph glyph-name="Iogonek" unicode="&#x12e;" horiz-adv-x="460" 
d="M140 -4v1447h180v-1439l-6 -4q-166 -111 -166 -204q0 -47 33.5 -72t85.5 -25q38 0 81 9v-121q-34 -17 -118 -17q-99 0 -163.5 52t-64.5 136q0 128 138 238z" />
    <glyph glyph-name="iogonek" unicode="&#x12f;" horiz-adv-x="418" 
d="M209 1205q-44 0 -76 32t-32 76q0 45 32 76.5t76 31.5q45 0 77 -31.5t32 -76.5q0 -44 -32 -76t-77 -32zM122 -4v1044h174v-1032l-12 -8q-81 -54 -116.5 -96t-35.5 -96q0 -46 32.5 -70t83.5 -24q37 0 80 9v-118q-34 -17 -116 -17q-97 0 -160.5 50.5t-63.5 131.5
q0 59 34 118.5t100 107.5z" />
    <glyph glyph-name="Idotaccent" unicode="&#x130;" horiz-adv-x="460" 
d="M320 0h-180v1443h180v-1443zM230 1585q-50 0 -85.5 35.5t-35.5 85.5t35.5 85.5t85.5 35.5t85.5 -35.5t35.5 -85.5t-35.5 -85.5t-85.5 -35.5z" />
    <glyph glyph-name="dotlessi" unicode="&#x131;" horiz-adv-x="418" 
d="M122 0v1040h174v-1040h-174z" />
    <glyph glyph-name="IJ" unicode="&#x132;" horiz-adv-x="1474" 
d="M320 0h-180v1443h180v-1443zM502 339h179q3 -92 66.5 -149.5t161.5 -57.5q119 0 182 69.5t63 201.5v1040h180v-1041q0 -205 -112 -320.5t-312 -115.5q-180 0 -294 104.5t-114 268.5z" />
    <glyph glyph-name="ij" unicode="&#x133;" horiz-adv-x="860" 
d="M122 0v1040h174v-1040h-174zM209 1215q-44 0 -76 32t-32 76q0 45 32 76.5t76 31.5q45 0 77 -31.5t32 -76.5q0 -44 -32 -76t-77 -32zM726 1040v-1091q0 -158 -78 -232.5t-244 -74.5q-31 0 -33 1v145h27q85 0 119.5 36t34.5 123v1093h174zM639 1215q-44 0 -76 32t-32 76
q0 45 32 76.5t76 31.5q45 0 77 -31.5t32 -76.5q0 -44 -32 -76t-77 -32z" />
    <glyph glyph-name="Jcircumflex" unicode="&#x134;" horiz-adv-x="1014" 
d="M42 339h179q3 -92 66.5 -149.5t161.5 -57.5q119 0 182 69.5t63 201.5v1040h180v-1041q0 -205 -112 -320.5t-312 -115.5q-180 0 -294 104.5t-114 268.5zM717 1838h134l283 -298h-166l-181 192h-6l-181 -192h-166z" />
    <glyph glyph-name="jcircumflex" unicode="&#x135;" horiz-adv-x="418" 
d="M296 1040v-1091q0 -158 -78 -232.5t-244 -74.5q-31 0 -33 1v145h27q85 0 119.5 36t34.5 123v1093h174zM275 1490l272 -300h-163l-173 192h-6l-173 -192h-163l272 300h134z" />
    <glyph glyph-name="Kcommaaccent" unicode="&#x136;" horiz-adv-x="1260" 
d="M320 0h-180v1443h180v-704h10l637 704h227l-593 -639l646 -804h-230l-541 676l-156 -172v-504zM581 -486h-126l108 359h152z" />
    <glyph glyph-name="kcommaaccent" unicode="&#x137;" horiz-adv-x="994" 
d="M296 578l460 462h211l-451 -449l465 -591h-202l-386 484l-97 -92v-392h-174v1443h174v-865zM509 -486h-126l108 359h152z" />
    <glyph glyph-name="Lacute" unicode="&#x139;" horiz-adv-x="1074" 
d="M1016 162v-162h-876v1443h180v-1281h696zM320 1560h-154l220 289h194z" />
    <glyph glyph-name="lacute" unicode="&#x13a;" horiz-adv-x="418" 
d="M122 0v1443h174v-1443h-174zM299 1560h-154l220 289h194z" />
    <glyph glyph-name="Lcommaaccent" unicode="&#x13b;" horiz-adv-x="1074" 
d="M1016 162v-162h-876v1443h180v-1281h696zM550 -486h-126l108 359h152z" />
    <glyph glyph-name="lcommaaccent" unicode="&#x13c;" horiz-adv-x="418" 
d="M122 0v1443h174v-1443h-174zM181 -486h-126l108 359h152z" />
    <glyph glyph-name="Lcaron" unicode="&#x13d;" horiz-adv-x="1074" 
d="M589 1443h170l-50 -488h-120v488zM1016 162v-162h-876v1443h180v-1281h696z" />
    <glyph glyph-name="lcaron" unicode="&#x13e;" horiz-adv-x="571" 
d="M442 1451h139l-30 -471h-109v471zM122 0v1443h174v-1443h-174z" />
    <glyph glyph-name="Lslash" unicode="&#x141;" horiz-adv-x="1074" 
d="M320 162h696v-162h-876v699l-122 -56v143l122 56v601h180v-519l336 153v-143l-336 -153v-619z" />
    <glyph glyph-name="lslash" unicode="&#x142;" horiz-adv-x="444" 
d="M430 962v-140l-121 -59v-763h-174v679l-121 -59v141l121 58v624h174v-539z" />
    <glyph glyph-name="Nacute" unicode="&#x143;" horiz-adv-x="1432" 
d="M318 0h-178v1443h175l790 -1133h9v1133h178v-1443h-175l-790 1129h-9v-1129zM806 1560h-154l220 289h194z" />
    <glyph glyph-name="nacute" unicode="&#x144;" horiz-adv-x="1079" 
d="M113 0v1040h164v-166h4q45 87 129 135.5t201 48.5q170 0 265 -102.5t95 -280.5v-675h-174v644q0 127 -60 193.5t-179 66.5q-123 0 -197 -80t-74 -212v-612h-174zM621 1190h-152l210 300h188z" />
    <glyph glyph-name="Ncommaaccent" unicode="&#x145;" horiz-adv-x="1432" 
d="M318 0h-178v1443h175l790 -1133h9v1133h178v-1443h-175l-790 1129h-9v-1129zM688 -486h-126l108 359h152z" />
    <glyph glyph-name="ncommaaccent" unicode="&#x146;" horiz-adv-x="1079" 
d="M113 0v1040h164v-166h4q45 87 129 135.5t201 48.5q170 0 265 -102.5t95 -280.5v-675h-174v644q0 127 -60 193.5t-179 66.5q-123 0 -197 -80t-74 -212v-612h-174zM523 -486h-126l108 359h152z" />
    <glyph glyph-name="Ncaron" unicode="&#x147;" horiz-adv-x="1432" 
d="M318 0h-178v1443h175l790 -1133h9v1133h178v-1443h-175l-790 1129h-9v-1129zM649 1550l-283 298h166l181 -192h6l181 192h166l-283 -298h-134z" />
    <glyph glyph-name="ncaron" unicode="&#x148;" horiz-adv-x="1079" 
d="M113 0v1040h164v-166h4q45 87 129 135.5t201 48.5q170 0 265 -102.5t95 -280.5v-675h-174v644q0 127 -60 193.5t-179 66.5q-123 0 -197 -80t-74 -212v-612h-174zM609 1190h-134l-272 300h163l173 -196h6l173 196h163z" />
    <glyph glyph-name="Omacron" unicode="&#x14c;" horiz-adv-x="1498" 
d="M749 1467q307 0 486 -201t179 -545t-179 -544.5t-486 -200.5t-486 200.5t-179 544.5t179 545t486 201zM749 1301q-221 0 -350.5 -156.5t-129.5 -423.5q0 -266 129.5 -422.5t350.5 -156.5t350.5 156.5t129.5 422.5q0 267 -129.5 423.5t-350.5 156.5zM1066 1750v-116h-634
v116h634z" />
    <glyph glyph-name="omacron" unicode="&#x14d;" horiz-adv-x="1087" 
d="M544 -18q-218 0 -350 145.5t-132 392.5t132 392.5t350 145.5q217 0 349 -145.5t132 -392.5q0 -246 -132 -392t-349 -146zM544 135q140 0 222 101.5t82 283.5t-82 283.5t-222 101.5t-222.5 -102t-82.5 -283t82.5 -283t222.5 -102zM831 1370v-116h-574v116h574z" />
    <glyph glyph-name="Obreve" unicode="&#x14e;" horiz-adv-x="1498" 
d="M749 1467q307 0 486 -201t179 -545t-179 -544.5t-486 -200.5t-486 200.5t-179 544.5t179 545t486 201zM749 1301q-221 0 -350.5 -156.5t-129.5 -423.5q0 -266 129.5 -422.5t350.5 -156.5t350.5 156.5t129.5 422.5q0 267 -129.5 423.5t-350.5 156.5zM428 1848h127
q9 -90 62 -142t132 -52t132 52t62 142h127q-10 -129 -96.5 -217.5t-224.5 -88.5t-224.5 88.5t-96.5 217.5z" />
    <glyph glyph-name="obreve" unicode="&#x14f;" horiz-adv-x="1087" 
d="M544 -18q-218 0 -350 145.5t-132 392.5t132 392.5t350 145.5q217 0 349 -145.5t132 -392.5q0 -246 -132 -392t-349 -146zM544 135q140 0 222 101.5t82 283.5t-82 283.5t-222 101.5t-222.5 -102t-82.5 -283t82.5 -283t222.5 -102zM221 1490h126q0 -91 55 -146.5t141 -55.5
t141 55.5t55 146.5h126q0 -138 -87.5 -224t-234.5 -86t-234.5 86t-87.5 224z" />
    <glyph glyph-name="Ohungarumlaut" unicode="&#x150;" horiz-adv-x="1498" 
d="M749 1467q307 0 486 -201t179 -545t-179 -544.5t-486 -200.5t-486 200.5t-179 544.5t179 545t486 201zM749 1301q-221 0 -350.5 -156.5t-129.5 -423.5q0 -266 129.5 -422.5t350.5 -156.5t350.5 156.5t129.5 422.5q0 267 -129.5 423.5t-350.5 156.5zM999 1560h-154
l220 289h194zM679 1560h-154l220 289h194z" />
    <glyph glyph-name="ohungarumlaut" unicode="&#x151;" horiz-adv-x="1087" 
d="M544 -18q-218 0 -350 145.5t-132 392.5t132 392.5t350 145.5q217 0 349 -145.5t132 -392.5q0 -246 -132 -392t-349 -146zM544 135q140 0 222 101.5t82 283.5t-82 283.5t-222 101.5t-222.5 -102t-82.5 -283t82.5 -283t222.5 -102zM634 1190l196 300h184l-242 -300h-138z
M318 1190l196 300h184l-242 -300h-138z" />
    <glyph glyph-name="OE" unicode="&#x152;" horiz-adv-x="2216" 
d="M756 1301q-224 0 -355.5 -156.5t-131.5 -423.5q0 -266 131.5 -422.5t355.5 -156.5q223 0 354.5 156.5t131.5 422.5t-131.5 423t-354.5 157zM1245 0v228q-75 -120 -203 -186t-286 -66q-310 0 -491 201t-181 544q0 344 181 545t491 201q161 0 287.5 -64.5t201.5 -183.5v224
h874v-162h-694v-463h656v-160h-656v-496h694v-162h-874z" />
    <glyph glyph-name="oe" unicode="&#x153;" horiz-adv-x="1834" 
d="M1328 -18q-125 0 -230 56.5t-160 149.5h-8q-134 -206 -387 -206q-220 0 -350.5 146.5t-130.5 391.5t130.5 391.5t350.5 146.5q255 0 387 -216h8q56 99 155 157.5t226 58.5q208 0 330.5 -141t122.5 -377v-67h-745v-11q0 -147 83.5 -238t219.5 -91q95 0 165.5 46t93.5 119
h171q-22 -135 -144 -225.5t-288 -90.5zM1592 609q-3 133 -79 215.5t-197 82.5q-120 0 -200 -83t-89 -215h565zM239 520q0 -180 81 -282.5t223 -102.5q143 0 223.5 102.5t80.5 282.5q0 181 -80.5 283t-223.5 102t-223.5 -102.5t-80.5 -282.5z" />
    <glyph glyph-name="Racute" unicode="&#x154;" horiz-adv-x="1227" 
d="M320 1283v-553h345q139 0 214.5 72t75.5 205q0 130 -79 203t-219 73h-337zM320 571v-571h-180v1443h541q209 0 334.5 -117.5t125.5 -312.5q0 -151 -77 -261t-213 -153l334 -599h-211l-309 571h-345zM625 1560h-154l220 289h194z" />
    <glyph glyph-name="racute" unicode="&#x155;" horiz-adv-x="631" 
d="M113 0v1040h164v-170h4q26 87 93.5 137.5t158.5 50.5q21 0 70 -7v-169q-28 10 -93 10q-101 0 -162 -67t-61 -177v-648h-174zM434 1190h-152l210 300h188z" />
    <glyph glyph-name="Rcommaaccent" unicode="&#x156;" horiz-adv-x="1227" 
d="M320 1283v-553h345q139 0 214.5 72t75.5 205q0 130 -79 203t-219 73h-337zM320 571v-571h-180v1443h541q209 0 334.5 -117.5t125.5 -312.5q0 -151 -77 -261t-213 -153l334 -599h-211l-309 571h-345zM507 -486h-126l108 359h152z" />
    <glyph glyph-name="rcommaaccent" unicode="&#x157;" horiz-adv-x="631" 
d="M113 0v1040h164v-170h4q26 87 93.5 137.5t158.5 50.5q21 0 70 -7v-169q-28 10 -93 10q-101 0 -162 -67t-61 -177v-648h-174zM172 -486h-126l108 359h152z" />
    <glyph glyph-name="Rcaron" unicode="&#x158;" horiz-adv-x="1227" 
d="M320 1283v-553h345q139 0 214.5 72t75.5 205q0 130 -79 203t-219 73h-337zM320 571v-571h-180v1443h541q209 0 334.5 -117.5t125.5 -312.5q0 -151 -77 -261t-213 -153l334 -599h-211l-309 571h-345zM468 1550l-283 298h166l181 -192h6l181 192h166l-283 -298h-134z" />
    <glyph glyph-name="rcaron" unicode="&#x159;" horiz-adv-x="631" 
d="M113 0v1040h164v-170h4q26 87 93.5 137.5t158.5 50.5q21 0 70 -7v-169q-28 10 -93 10q-101 0 -162 -67t-61 -177v-648h-174zM422 1190h-134l-272 300h163l173 -196h6l173 196h163z" />
    <glyph glyph-name="Sacute" unicode="&#x15a;" horiz-adv-x="1216" 
d="M71 397h181q13 -117 114.5 -188t256.5 -71q146 0 241.5 69.5t95.5 175.5q0 91 -66.5 150t-212.5 97l-185 48q-200 51 -292 142.5t-92 238.5q0 180 142.5 294t367.5 114q215 0 356 -115.5t147 -296.5h-180q-12 116 -100 183t-229 67q-140 0 -228.5 -66t-88.5 -172
q0 -82 64.5 -134.5t211.5 -90.5l151 -40q224 -56 322 -149t98 -248q0 -198 -145.5 -313.5t-394.5 -115.5q-230 0 -376 115t-159 306zM712 1560h-154l220 289h194z" />
    <glyph glyph-name="sacute" unicode="&#x15b;" horiz-adv-x="953" 
d="M95 753q0 134 108.5 219.5t279.5 85.5q161 0 268 -86t113 -218h-166q-9 76 -67.5 119t-153.5 43t-153 -42.5t-58 -111.5q0 -106 173 -150l161 -39q157 -40 221.5 -103.5t64.5 -178.5q0 -136 -116 -222.5t-298 -86.5q-170 0 -280.5 84.5t-124.5 223.5h174
q29 -166 242 -166q105 0 166.5 41.5t61.5 112.5q0 56 -36.5 89t-123.5 56l-183 47q-273 70 -273 283zM562 1190h-152l210 300h188z" />
    <glyph glyph-name="Scircumflex" unicode="&#x15c;" horiz-adv-x="1216" 
d="M71 397h181q13 -117 114.5 -188t256.5 -71q146 0 241.5 69.5t95.5 175.5q0 91 -66.5 150t-212.5 97l-185 48q-200 51 -292 142.5t-92 238.5q0 180 142.5 294t367.5 114q215 0 356 -115.5t147 -296.5h-180q-12 116 -100 183t-229 67q-140 0 -228.5 -66t-88.5 -172
q0 -82 64.5 -134.5t211.5 -90.5l151 -40q224 -56 322 -149t98 -248q0 -198 -145.5 -313.5t-394.5 -115.5q-230 0 -376 115t-159 306zM555 1838h134l283 -298h-166l-181 192h-6l-181 -192h-166z" />
    <glyph glyph-name="scircumflex" unicode="&#x15d;" horiz-adv-x="953" 
d="M95 753q0 134 108.5 219.5t279.5 85.5q161 0 268 -86t113 -218h-166q-9 76 -67.5 119t-153.5 43t-153 -42.5t-58 -111.5q0 -106 173 -150l161 -39q157 -40 221.5 -103.5t64.5 -178.5q0 -136 -116 -222.5t-298 -86.5q-170 0 -280.5 84.5t-124.5 223.5h174
q29 -166 242 -166q105 0 166.5 41.5t61.5 112.5q0 56 -36.5 89t-123.5 56l-183 47q-273 70 -273 283zM550 1490l272 -300h-163l-173 192h-6l-173 -192h-163l272 300h134z" />
    <glyph glyph-name="Scedilla" unicode="&#x15e;" horiz-adv-x="1216" 
d="M575 842l151 -40q224 -56 322 -149t98 -248q0 -183 -125.5 -296t-343.5 -130l-47 -109q99 -2 156.5 -43.5t57.5 -116.5q0 -83 -66 -129.5t-168 -48.5q-99 -2 -150 14v102q53 -12 125 -12q127 0 127 72q0 34 -34.5 49t-111.5 15h-70v69l54 137q-208 14 -337.5 127
t-141.5 292h181q13 -117 114.5 -188t256.5 -71q146 0 241.5 69.5t95.5 175.5q0 91 -66.5 150t-212.5 97l-185 48q-200 51 -292 142.5t-92 238.5q0 180 142.5 294t367.5 114q215 0 356 -115.5t147 -296.5h-180q-12 116 -100 183t-229 67q-140 0 -228.5 -66t-88.5 -172
q0 -82 64.5 -134.5t211.5 -90.5z" />
    <glyph glyph-name="scedilla" unicode="&#x15f;" horiz-adv-x="953" 
d="M439 612l161 -39q157 -40 221.5 -103.5t64.5 -178.5q0 -121 -93.5 -204.5t-246.5 -100.5l-50 -116q99 -2 156.5 -43.5t57.5 -116.5q0 -83 -66 -129.5t-168 -48.5q-99 -2 -150 14v102q53 -12 125 -12q127 0 127 72q0 34 -34.5 49t-111.5 15h-70v69l57 143
q-150 13 -244.5 96t-107.5 210h174q29 -166 242 -166q105 0 166.5 41.5t61.5 112.5q0 56 -36.5 89t-123.5 56l-183 47q-273 70 -273 283q0 134 108.5 219.5t279.5 85.5q161 0 268 -86t113 -218h-166q-9 76 -67.5 119t-153.5 43t-153 -42.5t-58 -111.5q0 -106 173 -150z" />
    <glyph glyph-name="Scaron" unicode="&#x160;" horiz-adv-x="1216" 
d="M71 397h181q13 -117 114.5 -188t256.5 -71q146 0 241.5 69.5t95.5 175.5q0 91 -66.5 150t-212.5 97l-185 48q-200 51 -292 142.5t-92 238.5q0 180 142.5 294t367.5 114q215 0 356 -115.5t147 -296.5h-180q-12 116 -100 183t-229 67q-140 0 -228.5 -66t-88.5 -172
q0 -82 64.5 -134.5t211.5 -90.5l151 -40q224 -56 322 -149t98 -248q0 -198 -145.5 -313.5t-394.5 -115.5q-230 0 -376 115t-159 306zM555 1550l-283 298h166l181 -192h6l181 192h166l-283 -298h-134z" />
    <glyph glyph-name="scaron" unicode="&#x161;" horiz-adv-x="953" 
d="M95 753q0 134 108.5 219.5t279.5 85.5q161 0 268 -86t113 -218h-166q-9 76 -67.5 119t-153.5 43t-153 -42.5t-58 -111.5q0 -106 173 -150l161 -39q157 -40 221.5 -103.5t64.5 -178.5q0 -136 -116 -222.5t-298 -86.5q-170 0 -280.5 84.5t-124.5 223.5h174
q29 -166 242 -166q105 0 166.5 41.5t61.5 112.5q0 56 -36.5 89t-123.5 56l-183 47q-273 70 -273 283zM550 1190h-134l-272 300h163l173 -196h6l173 196h163z" />
    <glyph glyph-name="Tcedilla" unicode="&#x162;" horiz-adv-x="1190" 
d="M685 8v-8l-56 -130q99 -2 156.5 -43.5t57.5 -116.5q0 -83 -66 -129.5t-168 -48.5q-99 -2 -150 14v102q53 -12 125 -12q127 0 127 72q0 34 -34.5 49t-111.5 15h-70v69l63 159h-53v1281h-455v162h1090v-162h-455v-1273z" />
    <glyph glyph-name="tcedilla" unicode="&#x163;" horiz-adv-x="617" 
d="M434 -8l-53 -122q99 -2 156.5 -43.5t57.5 -116.5q0 -83 -66 -129.5t-168 -48.5q-99 -2 -150 14v102q53 -12 125 -12q127 0 127 72q0 34 -34.5 49t-111.5 15h-70v69l66 166q-76 23 -110 86t-34 177v627h-155v143h155v251h174v-251h202v-143h-202v-618q0 -71 31 -104.5
t98 -33.5q42 0 72 5v-146q-34 -8 -110 -8z" />
    <glyph glyph-name="Tcaron" unicode="&#x164;" horiz-adv-x="1190" 
d="M685 0h-180v1281h-455v162h1090v-162h-455v-1281zM528 1550l-283 298h166l181 -192h6l181 192h166l-283 -298h-134z" />
    <glyph glyph-name="tcaron" unicode="&#x165;" horiz-adv-x="705" 
d="M488 1659h139l-29 -471h-110v471zM169 1291h174v-251h202v-143h-202v-618q0 -71 31 -104.5t98 -33.5q42 0 72 5v-146q-34 -8 -110 -8q-143 0 -204 64t-61 214v627h-155v143h155v251z" />
    <glyph glyph-name="Tbar" unicode="&#x166;" horiz-adv-x="1190" 
d="M1140 1281h-455v-488h305v-143h-305v-650h-180v650h-305v143h305v488h-455v162h1090v-162z" />
    <glyph glyph-name="tbar" unicode="&#x167;" horiz-adv-x="621" 
d="M545 897h-202v-281h202v-139h-202v-198q0 -71 31 -104.5t98 -33.5q42 0 72 5v-146q-34 -8 -110 -8q-143 0 -204 64t-61 214v207h-155v139h155v281h-155v143h155v251h174v-251h202v-143z" />
    <glyph glyph-name="Utilde" unicode="&#x168;" horiz-adv-x="1426" 
d="M320 1443v-925q0 -167 104.5 -271.5t288.5 -104.5t288.5 104.5t104.5 271.5v925h180v-937q0 -235 -154.5 -382.5t-418.5 -147.5t-418.5 147.5t-154.5 382.5v937h180zM844 1580q-45 0 -85.5 24t-65 52t-54.5 52t-56 24q-35 0 -54.5 -37t-16.5 -105h-118q0 121 51.5 188
t138.5 67q39 0 73.5 -15.5t58.5 -38t45 -45t42.5 -38t41.5 -15.5q32 0 50.5 36.5t18.5 106.5h118q0 -118 -52.5 -187t-135.5 -69z" />
    <glyph glyph-name="utilde" unicode="&#x169;" horiz-adv-x="1079" 
d="M967 1040v-1040h-165v169h-4q-97 -187 -330 -187q-169 0 -264.5 102.5t-95.5 280.5v675h174v-644q0 -260 240 -260q126 0 198.5 79.5t72.5 213.5v611h174zM672 1198q-45 0 -85.5 24t-65 52t-54.5 52t-56 24q-35 0 -54.5 -37t-16.5 -105h-118q0 121 51.5 188t138.5 67
q39 0 73.5 -15.5t58.5 -38t45 -45t42.5 -38t41.5 -15.5q32 0 50.5 36.5t18.5 106.5h118q0 -118 -52.5 -187t-135.5 -69z" />
    <glyph glyph-name="Umacron" unicode="&#x16a;" horiz-adv-x="1426" 
d="M320 1443v-925q0 -167 104.5 -271.5t288.5 -104.5t288.5 104.5t104.5 271.5v925h180v-937q0 -235 -154.5 -382.5t-418.5 -147.5t-418.5 147.5t-154.5 382.5v937h180zM1030 1750v-116h-634v116h634z" />
    <glyph glyph-name="umacron" unicode="&#x16b;" horiz-adv-x="1079" 
d="M967 1040v-1040h-165v169h-4q-97 -187 -330 -187q-169 0 -264.5 102.5t-95.5 280.5v675h174v-644q0 -260 240 -260q126 0 198.5 79.5t72.5 213.5v611h174zM824 1370v-116h-574v116h574z" />
    <glyph glyph-name="Ubreve" unicode="&#x16c;" horiz-adv-x="1426" 
d="M320 1443v-925q0 -167 104.5 -271.5t288.5 -104.5t288.5 104.5t104.5 271.5v925h180v-937q0 -235 -154.5 -382.5t-418.5 -147.5t-418.5 147.5t-154.5 382.5v937h180zM392 1848h127q9 -90 62 -142t132 -52t132 52t62 142h127q-10 -129 -96.5 -217.5t-224.5 -88.5
t-224.5 88.5t-96.5 217.5z" />
    <glyph glyph-name="ubreve" unicode="&#x16d;" horiz-adv-x="1079" 
d="M967 1040v-1040h-165v169h-4q-97 -187 -330 -187q-169 0 -264.5 102.5t-95.5 280.5v675h174v-644q0 -260 240 -260q126 0 198.5 79.5t72.5 213.5v611h174zM214 1490h126q0 -91 55 -146.5t141 -55.5t141 55.5t55 146.5h126q0 -138 -87.5 -224t-234.5 -86t-234.5 86
t-87.5 224z" />
    <glyph glyph-name="Uring" unicode="&#x16e;" horiz-adv-x="1426" 
d="M320 1443v-925q0 -167 104.5 -271.5t288.5 -104.5t288.5 104.5t104.5 271.5v925h180v-937q0 -235 -154.5 -382.5t-418.5 -147.5t-418.5 147.5t-154.5 382.5v937h180zM713 1516q-79 0 -135 56t-56 135t56 135t135 56t135 -56t56 -135t-56 -135t-135 -56zM713 1604
q43 0 73 30t30 73t-30 73t-73 30t-73 -30t-30 -73t30 -73t73 -30z" />
    <glyph glyph-name="uring" unicode="&#x16f;" horiz-adv-x="1079" 
d="M967 1040v-1040h-165v169h-4q-97 -187 -330 -187q-169 0 -264.5 102.5t-95.5 280.5v675h174v-644q0 -260 240 -260q126 0 198.5 79.5t72.5 213.5v611h174zM537 1132q-79 0 -135 56t-56 135t56 135t135 56t135 -56t56 -135t-56 -135t-135 -56zM537 1220q43 0 73 30t30 73
t-30 73t-73 30t-73 -30t-30 -73t30 -73t73 -30z" />
    <glyph glyph-name="Uhungarumlaut" unicode="&#x170;" horiz-adv-x="1426" 
d="M320 1443v-925q0 -167 104.5 -271.5t288.5 -104.5t288.5 104.5t104.5 271.5v925h180v-937q0 -235 -154.5 -382.5t-418.5 -147.5t-418.5 147.5t-154.5 382.5v937h180zM963 1560h-154l220 289h194zM643 1560h-154l220 289h194z" />
    <glyph glyph-name="uhungarumlaut" unicode="&#x171;" horiz-adv-x="1079" 
d="M967 1040v-1040h-165v169h-4q-97 -187 -330 -187q-169 0 -264.5 102.5t-95.5 280.5v675h174v-644q0 -260 240 -260q126 0 198.5 79.5t72.5 213.5v611h174zM627 1190l196 300h184l-242 -300h-138zM311 1190l196 300h184l-242 -300h-138z" />
    <glyph glyph-name="Uogonek" unicode="&#x172;" horiz-adv-x="1426" 
d="M944 -430q-99 0 -163.5 52t-64.5 136q0 125 138 238v4q-79 -24 -141 -24q-259 0 -416 145t-157 385v937h180v-925q0 -172 107 -274t286 -102t286 102t107 274v925h180v-937q0 -140 -61.5 -253t-198.5 -231q-81 -70 -122.5 -123.5t-41.5 -102.5q0 -47 33.5 -72t85.5 -25
q38 0 81 9v-121q-34 -17 -118 -17z" />
    <glyph glyph-name="uogonek" unicode="&#x173;" horiz-adv-x="1079" 
d="M962 -395q-34 -17 -116 -17q-97 0 -160 50t-63 132q0 83 52 147t127 105v147h-4q-97 -187 -330 -187q-169 0 -264.5 102.5t-95.5 280.5v675h174v-644q0 -260 240 -260q126 0 198.5 79.5t72.5 213.5v611h174v-1042l-8 -3q-79 -30 -134.5 -78.5t-55.5 -106.5
q0 -46 31.5 -71t81.5 -25q37 0 80 9v-118z" />
    <glyph glyph-name="Wcircumflex" unicode="&#x174;" horiz-adv-x="1892" 
d="M941 1145l-333 -1145h-170l-393 1443h188l289 -1178h8l325 1178h182l325 -1178h8l289 1178h188l-393 -1443h-170l-333 1145h-10zM879 1838h134l283 -298h-166l-181 192h-6l-181 -192h-166z" />
    <glyph glyph-name="wcircumflex" unicode="&#x175;" horiz-adv-x="1465" 
d="M1436 1040l-290 -1040h-177l-235 805h-4l-234 -805h-177l-291 1040h173l208 -846h4l235 846h168l236 -846h4l208 846h172zM799 1490l272 -300h-163l-173 192h-6l-173 -192h-163l272 300h134z" />
    <glyph glyph-name="Ycircumflex" unicode="&#x176;" horiz-adv-x="1254" 
d="M717 0h-180v621l-512 822h205l394 -648h6l394 648h205l-512 -822v-621zM560 1838h134l283 -298h-166l-181 192h-6l-181 -192h-166z" />
    <glyph glyph-name="ycircumflex" unicode="&#x177;" horiz-adv-x="995" 
d="M199 -389q-46 0 -75 6v146q24 -5 68 -5q73 0 117 38.5t74 129.5l24 73l-384 1041h186l288 -866h3l288 866h183l-409 -1113q-67 -182 -144.5 -249t-218.5 -67zM565 1490l272 -300h-163l-173 192h-6l-173 -192h-163l272 300h134z" />
    <glyph glyph-name="Ydieresis" unicode="&#x178;" horiz-adv-x="1254" 
d="M717 0h-180v621l-512 822h205l394 -648h6l394 648h205l-512 -822v-621zM441 1604q-45 0 -77.5 32t-32.5 78t32.5 78t77.5 32t77.5 -32t32.5 -78t-32.5 -78t-77.5 -32zM813 1604q-45 0 -77.5 32t-32.5 78t32.5 78t77.5 32t77.5 -32t32.5 -78t-32.5 -78t-77.5 -32z" />
    <glyph glyph-name="Zacute" unicode="&#x179;" horiz-adv-x="1263" 
d="M98 0v128l823 1146v7h-795v162h1022v-128l-819 -1146v-7h836v-162h-1067zM722 1560h-154l220 289h194z" />
    <glyph glyph-name="zacute" unicode="&#x17a;" horiz-adv-x="958" 
d="M91 0v124l576 770v3h-575v143h772v-127l-572 -767v-3h575v-143h-776zM558 1190h-152l210 300h188z" />
    <glyph glyph-name="Zdotaccent" unicode="&#x17b;" horiz-adv-x="1263" 
d="M98 0v128l823 1146v7h-795v162h1022v-128l-819 -1146v-7h836v-162h-1067zM632 1585q-50 0 -85.5 35.5t-35.5 85.5t35.5 85.5t85.5 35.5t85.5 -35.5t35.5 -85.5t-35.5 -85.5t-85.5 -35.5z" />
    <glyph glyph-name="zdotaccent" unicode="&#x17c;" horiz-adv-x="958" 
d="M91 0v124l576 770v3h-575v143h772v-127l-572 -767v-3h575v-143h-776zM479 1201q-51 0 -87.5 36.5t-36.5 87.5t36.5 87.5t87.5 36.5t87.5 -36.5t36.5 -87.5t-36.5 -87.5t-87.5 -36.5z" />
    <glyph glyph-name="Zcaron" unicode="&#x17d;" horiz-adv-x="1263" 
d="M98 0v128l823 1146v7h-795v162h1022v-128l-819 -1146v-7h836v-162h-1067zM565 1550l-283 298h166l181 -192h6l181 192h166l-283 -298h-134z" />
    <glyph glyph-name="zcaron" unicode="&#x17e;" horiz-adv-x="958" 
d="M91 0v124l576 770v3h-575v143h772v-127l-572 -767v-3h575v-143h-776zM546 1190h-134l-272 300h163l173 -196h6l173 196h163z" />
    <glyph glyph-name="uni04D8" unicode="&#x4d8;" horiz-adv-x="1438" 
d="M714 -34q-283 0 -449.5 191.5t-170.5 521.5v79h1057v27q2 232 -127 379t-334 147q-284 0 -389 -232h-185q65 188 217.5 293t360.5 105q299 0 474.5 -204.5t175.5 -552.5q0 -339 -173.5 -546.5t-456.5 -207.5zM718 132q174 0 290 126.5t139 340.5h-855
q17 -220 129.5 -343.5t296.5 -123.5z" />
    <glyph glyph-name="uni04D8" unicode="&#x18f;" horiz-adv-x="1438" 
d="M714 -34q-283 0 -449.5 191.5t-170.5 521.5v79h1057v27q2 232 -127 379t-334 147q-284 0 -389 -232h-185q65 188 217.5 293t360.5 105q299 0 474.5 -204.5t175.5 -552.5q0 -339 -173.5 -546.5t-456.5 -207.5zM718 132q174 0 290 126.5t139 340.5h-855
q17 -220 129.5 -343.5t296.5 -123.5z" />
    <glyph glyph-name="florin" unicode="&#x192;" horiz-adv-x="1239" 
d="M1203 1426v-157q-86 42 -190 42q-116 0 -177 -51t-77 -160l-32 -226h368v-144h-389l-56 -388q-26 -185 -124 -275.5t-271 -90.5q-121 0 -218 47v167q38 -24 95 -39.5t107 -15.5q110 0 166.5 53t73.5 174l53 368h-336v144h357l34 237q26 175 128.5 265.5t275.5 90.5
q124 0 212 -41z" />
    <glyph glyph-name="Ohorn" unicode="&#x1a0;" horiz-adv-x="1498" 
d="M749 -24q-307 0 -486 200.5t-179 544.5t179 545t486 201q74 0 207.5 -20t208.5 -20q61 0 85 20.5t24 72.5v140h159v-192q0 -76 -50.5 -123.5t-131.5 -47.5h-59v-6q95 -68 158.5 -230t63.5 -340q0 -344 -179 -544.5t-486 -200.5zM749 142q221 0 350.5 156.5t129.5 422.5
q0 268 -129.5 424t-350.5 156t-350.5 -156.5t-129.5 -423.5q0 -266 129.5 -422.5t350.5 -156.5z" />
    <glyph glyph-name="ohorn" unicode="&#x1a1;" horiz-adv-x="1132" 
d="M544 135q140 0 222 101.5t82 283.5t-82 283.5t-222 101.5t-222.5 -102t-82.5 -283t82.5 -283t222.5 -102zM1025 520q0 -246 -132 -392t-349 -146q-218 0 -350 145.5t-132 392.5t132 392.5t350 145.5q70 0 148 -16.5t116 -16.5q59 0 82 20t23 70v132h157v-184
q0 -68 -40 -111.5t-101 -43.5h-33v-4q129 -148 129 -384z" />
    <glyph glyph-name="Uhorn" unicode="&#x1af;" horiz-adv-x="1573" 
d="M713 -24q-259 0 -416 145t-157 385v937h180v-925q0 -172 107 -274t286 -102t286 102t107 274v925h182q47 0 69 21.5t22 66.5v159h159v-189q0 -87 -54 -136.5t-148 -49.5h-50v-809q0 -240 -157 -385t-416 -145z" />
    <glyph glyph-name="uhorn" unicode="&#x1b0;" horiz-adv-x="1176" 
d="M798 169q-97 -187 -330 -187q-169 0 -264.5 102.5t-95.5 280.5v675h174v-644q0 -260 240 -260q126 0 198.5 79.5t72.5 213.5v611h148q87 0 87 84v147h157v-177q0 -85 -52 -133t-144 -48h-22v-913h-165v169h-4z" />
    <glyph glyph-name="uni01C4" unicode="&#x1c4;" horiz-adv-x="2662" 
d="M140 1443h485q321 0 501 -190.5t180 -530.5q0 -341 -179.5 -531.5t-501.5 -190.5h-485v1443zM320 1281v-1119h293q245 0 377 144.5t132 413.5q0 271 -131.5 416t-377.5 145h-293zM1497 0v128l823 1146v7h-795v162h1022v-128l-819 -1146v-7h836v-162h-1067zM1964 1550
l-283 298h166l181 -192h6l181 192h166l-283 -298h-134z" />
    <glyph glyph-name="uni01C5" unicode="&#x1c5;" horiz-adv-x="2389" 
d="M140 1443h485q321 0 501 -190.5t180 -530.5q0 -341 -179.5 -531.5t-501.5 -190.5h-485v1443zM320 1281v-1119h293q245 0 377 144.5t132 413.5q0 271 -131.5 416t-377.5 145h-293zM1490 0v124l576 770v3h-575v143h772v-127l-572 -767v-3h575v-143h-776zM1945 1190h-134
l-272 300h163l173 -196h6l173 196h163z" />
    <glyph glyph-name="uni01C6" unicode="&#x1c6;" horiz-adv-x="2163" 
d="M507 -18q-200 0 -322.5 147t-122.5 391q0 243 122 390.5t319 147.5q110 0 197 -50t134 -137h4v572h174v-1443h-166v176h-3q-51 -91 -138 -142.5t-198 -51.5zM540 905q-138 0 -219 -104.5t-81 -280.5q0 -177 81 -281t219 -104q135 0 217 105.5t82 279.5t-82.5 279.5
t-216.5 105.5zM1264 0v124l576 770v3h-575v143h772v-127l-572 -767v-3h575v-143h-776zM1719 1190h-134l-272 300h163l173 -196h6l173 196h163z" />
    <glyph glyph-name="uni01C7" unicode="&#x1c7;" horiz-adv-x="2088" 
d="M1016 162v-162h-876v1443h180v-1281h696zM1116 339h179q3 -92 66.5 -149.5t161.5 -57.5q119 0 182 69.5t63 201.5v1040h180v-1041q0 -205 -112 -320.5t-312 -115.5q-180 0 -294 104.5t-114 268.5z" />
    <glyph glyph-name="uni01C8" unicode="&#x1c8;" horiz-adv-x="1504" 
d="M1016 162v-162h-876v1443h180v-1281h696zM1370 1040v-1091q0 -158 -78 -232.5t-244 -74.5q-31 0 -33 1v145h27q85 0 119.5 36t34.5 123v1093h174zM1283 1215q-44 0 -76 32t-32 76q0 45 32 76.5t76 31.5q45 0 77 -31.5t32 -76.5q0 -44 -32 -76t-77 -32z" />
    <glyph glyph-name="uni01C9" unicode="&#x1c9;" horiz-adv-x="860" 
d="M122 0v1443h174v-1443h-174zM726 1040v-1091q0 -158 -78 -232.5t-244 -74.5q-31 0 -33 1v145h27q85 0 119.5 36t34.5 123v1093h174zM639 1215q-44 0 -76 32t-32 76q0 45 32 76.5t76 31.5q45 0 77 -31.5t32 -76.5q0 -44 -32 -76t-77 -32z" />
    <glyph glyph-name="uni01CA" unicode="&#x1ca;" horiz-adv-x="2446" 
d="M318 0h-178v1443h175l790 -1133h9v1133h178v-1443h-175l-790 1129h-9v-1129zM1474 339h179q3 -92 66.5 -149.5t161.5 -57.5q119 0 182 69.5t63 201.5v1040h180v-1041q0 -205 -112 -320.5t-312 -115.5q-180 0 -294 104.5t-114 268.5z" />
    <glyph glyph-name="uni01CB" unicode="&#x1cb;" horiz-adv-x="1862" 
d="M318 0h-178v1443h175l790 -1133h9v1133h178v-1443h-175l-790 1129h-9v-1129zM1728 1040v-1091q0 -158 -78 -232.5t-244 -74.5q-31 0 -33 1v145h27q85 0 119.5 36t34.5 123v1093h174zM1641 1215q-44 0 -76 32t-32 76q0 45 32 76.5t76 31.5q45 0 77 -31.5t32 -76.5
q0 -44 -32 -76t-77 -32z" />
    <glyph glyph-name="uni01CC" unicode="&#x1cc;" horiz-adv-x="1545" 
d="M113 0v1040h164v-166h4q45 87 129 135.5t201 48.5q170 0 265 -102.5t95 -280.5v-675h-174v644q0 127 -60 193.5t-179 66.5q-123 0 -197 -80t-74 -212v-612h-174zM1411 1040v-1091q0 -158 -78 -232.5t-244 -74.5q-31 0 -33 1v145h27q85 0 119.5 36t34.5 123v1093h174z
M1324 1215q-44 0 -76 32t-32 76q0 45 32 76.5t76 31.5q45 0 77 -31.5t32 -76.5q0 -44 -32 -76t-77 -32z" />
    <glyph glyph-name="Acaron" unicode="&#x1cd;" horiz-adv-x="1292" 
d="M1078 0l-145 413h-574l-145 -413h-189l532 1443h178l532 -1443h-189zM643 1224l-231 -658h468l-231 658h-6zM579 1550l-283 298h166l181 -192h6l181 192h166l-283 -298h-134z" />
    <glyph glyph-name="acaron" unicode="&#x1ce;" horiz-adv-x="1028" 
d="M456 130q123 0 206.5 76.5t83.5 188.5v85l-278 -17q-105 -7 -162.5 -51t-57.5 -118t57 -119t151 -45zM417 -18q-155 0 -250.5 86t-95.5 226q0 134 98.5 214t278.5 90l298 17v87q0 95 -60 149t-168 54q-99 0 -161 -43.5t-79 -121.5h-168q9 139 120.5 228.5t291.5 89.5
q183 0 290.5 -92t107.5 -247v-719h-165v179h-4q-47 -89 -138 -143t-196 -54zM577 1190h-134l-272 300h163l173 -196h6l173 196h163z" />
    <glyph glyph-name="Icaron" unicode="&#x1cf;" horiz-adv-x="460" 
d="M320 0h-180v1443h180v-1443zM163 1550l-283 298h166l181 -192h6l181 192h166l-283 -298h-134z" />
    <glyph glyph-name="icaron" unicode="&#x1d0;" horiz-adv-x="418" 
d="M122 0v1040h174v-1040h-174zM276 1190h-134l-272 300h163l173 -196h6l173 196h163z" />
    <glyph glyph-name="Ocaron" unicode="&#x1d1;" horiz-adv-x="1498" 
d="M749 1467q307 0 486 -201t179 -545t-179 -544.5t-486 -200.5t-486 200.5t-179 544.5t179 545t486 201zM749 1301q-221 0 -350.5 -156.5t-129.5 -423.5q0 -266 129.5 -422.5t350.5 -156.5t350.5 156.5t129.5 422.5q0 267 -129.5 423.5t-350.5 156.5zM682 1550l-283 298
h166l181 -192h6l181 192h166l-283 -298h-134z" />
    <glyph glyph-name="ocaron" unicode="&#x1d2;" horiz-adv-x="1087" 
d="M544 -18q-218 0 -350 145.5t-132 392.5t132 392.5t350 145.5q217 0 349 -145.5t132 -392.5q0 -246 -132 -392t-349 -146zM544 135q140 0 222 101.5t82 283.5t-82 283.5t-222 101.5t-222.5 -102t-82.5 -283t82.5 -283t222.5 -102zM611 1190h-134l-272 300h163l173 -196h6
l173 196h163z" />
    <glyph glyph-name="Ucaron" unicode="&#x1d3;" horiz-adv-x="1426" 
d="M320 1443v-925q0 -167 104.5 -271.5t288.5 -104.5t288.5 104.5t104.5 271.5v925h180v-937q0 -235 -154.5 -382.5t-418.5 -147.5t-418.5 147.5t-154.5 382.5v937h180zM646 1550l-283 298h166l181 -192h6l181 192h166l-283 -298h-134z" />
    <glyph glyph-name="ucaron" unicode="&#x1d4;" horiz-adv-x="1079" 
d="M967 1040v-1040h-165v169h-4q-97 -187 -330 -187q-169 0 -264.5 102.5t-95.5 280.5v675h174v-644q0 -260 240 -260q126 0 198.5 79.5t72.5 213.5v611h174zM604 1190h-134l-272 300h163l173 -196h6l173 196h163z" />
    <glyph glyph-name="Udieresismacron" unicode="&#x1d5;" horiz-adv-x="1426" 
d="M320 1443v-925q0 -167 104.5 -271.5t288.5 -104.5t288.5 104.5t104.5 271.5v925h180v-937q0 -235 -154.5 -382.5t-418.5 -147.5t-418.5 147.5t-154.5 382.5v937h180zM536 1766q43 0 73.5 -31t30.5 -75t-30.5 -75t-73.5 -31q-44 0 -74.5 31t-30.5 75t30.5 75t74.5 31z
M396 2025h634v-116h-634v116zM890 1766q44 0 74.5 -31t30.5 -75t-30.5 -75t-74.5 -31q-43 0 -73.5 31t-30.5 75t30.5 75t73.5 31z" />
    <glyph glyph-name="udieresismacron" unicode="&#x1d6;" horiz-adv-x="1079" 
d="M967 1040v-1040h-165v169h-4q-97 -187 -330 -187q-169 0 -264.5 102.5t-95.5 280.5v675h174v-644q0 -260 240 -260q126 0 198.5 79.5t72.5 213.5v611h174zM347 1152q-46 0 -79 33t-33 79t33 79t79 33t79 -33t33 -79t-33 -79t-79 -33zM727 1152q-46 0 -79 33t-33 79t33 79
t79 33t79 -33t33 -79t-33 -79t-79 -33zM824 1638v-116h-574v116h574z" />
    <glyph glyph-name="Udieresisacute" unicode="&#x1d7;" horiz-adv-x="1426" 
d="M320 1443v-925q0 -167 104.5 -271.5t288.5 -104.5t288.5 104.5t104.5 271.5v925h180v-937q0 -235 -154.5 -382.5t-418.5 -147.5t-418.5 147.5t-154.5 382.5v937h180zM631 1830l168 216h170l-192 -216h-146zM536 1554q-44 0 -74.5 31t-30.5 75t30.5 75t74.5 31
q43 0 73.5 -31t30.5 -75t-30.5 -75t-73.5 -31zM890 1554q-43 0 -73.5 31t-30.5 75t30.5 75t73.5 31q44 0 74.5 -31t30.5 -75t-30.5 -75t-74.5 -31z" />
    <glyph glyph-name="udieresisacute" unicode="&#x1d8;" horiz-adv-x="1079" 
d="M967 1040v-1040h-165v169h-4q-97 -187 -330 -187q-169 0 -264.5 102.5t-95.5 280.5v675h174v-644q0 -260 240 -260q126 0 198.5 79.5t72.5 213.5v611h174zM447 1492l209 296h164l-231 -296h-142zM351 1154q-45 0 -77.5 32t-32.5 78t32.5 78t77.5 32t77.5 -32t32.5 -78
t-32.5 -78t-77.5 -32zM723 1154q-45 0 -77.5 32t-32.5 78t32.5 78t77.5 32t77.5 -32t32.5 -78t-32.5 -78t-77.5 -32z" />
    <glyph glyph-name="Udieresiscaron" unicode="&#x1d9;" horiz-adv-x="1426" 
d="M320 1443v-925q0 -167 104.5 -271.5t288.5 -104.5t288.5 104.5t104.5 271.5v925h180v-937q0 -235 -154.5 -382.5t-418.5 -147.5t-418.5 147.5t-154.5 382.5v937h180zM637 1816l-264 232h174l163 -144h6l163 144h174l-264 -232h-152zM536 1766q43 0 73.5 -31t30.5 -75
t-30.5 -75t-73.5 -31q-44 0 -74.5 31t-30.5 75t30.5 75t74.5 31zM890 1766q44 0 74.5 -31t30.5 -75t-30.5 -75t-74.5 -31q-43 0 -73.5 31t-30.5 75t30.5 75t73.5 31z" />
    <glyph glyph-name="udieresiscaron" unicode="&#x1da;" horiz-adv-x="1079" 
d="M967 1040v-1040h-165v169h-4q-97 -187 -330 -187q-169 0 -264.5 102.5t-95.5 280.5v675h174v-644q0 -260 240 -260q126 0 198.5 79.5t72.5 213.5v611h174zM347 1152q-46 0 -79 33t-33 79t33 79t79 33t79 -33t33 -79t-33 -79t-79 -33zM727 1152q-46 0 -79 33t-33 79t33 79
t79 33t79 -33t33 -79t-33 -79t-79 -33zM605 1468h-136l-272 280h164l173 -178h6l173 178h164z" />
    <glyph glyph-name="Udieresisgrave" unicode="&#x1db;" horiz-adv-x="1426" 
d="M320 1443v-925q0 -167 104.5 -271.5t288.5 -104.5t288.5 104.5t104.5 271.5v925h180v-937q0 -235 -154.5 -382.5t-418.5 -147.5t-418.5 147.5t-154.5 382.5v937h180zM785 1830h-146l-192 216h170zM536 1554q-44 0 -74.5 31t-30.5 75t30.5 75t74.5 31q43 0 73.5 -31
t30.5 -75t-30.5 -75t-73.5 -31zM890 1554q-43 0 -73.5 31t-30.5 75t30.5 75t73.5 31q44 0 74.5 -31t30.5 -75t-30.5 -75t-74.5 -31z" />
    <glyph glyph-name="udieresisgrave" unicode="&#x1dc;" horiz-adv-x="1079" 
d="M967 1040v-1040h-165v169h-4q-97 -187 -330 -187q-169 0 -264.5 102.5t-95.5 280.5v675h174v-644q0 -260 240 -260q126 0 198.5 79.5t72.5 213.5v611h174zM627 1492h-142l-231 296h164zM351 1154q-45 0 -77.5 32t-32.5 78t32.5 78t77.5 32t77.5 -32t32.5 -78t-32.5 -78
t-77.5 -32zM723 1154q-45 0 -77.5 32t-32.5 78t32.5 78t77.5 32t77.5 -32t32.5 -78t-32.5 -78t-77.5 -32z" />
    <glyph glyph-name="uni04D9" unicode="&#x4d9;" horiz-adv-x="1068" 
d="M527 132q123 0 202.5 82t88.5 219h-566q2 -136 77.5 -218.5t197.5 -82.5zM256 769h-171q38 132 154 210.5t283 78.5q219 0 346.5 -145t127.5 -392q0 -246 -128 -392.5t-343 -146.5q-211 0 -332 140t-121 382l3 65h743v8q0 151 -82 241t-214 90q-195 0 -266 -139z" />
    <glyph glyph-name="uni04D9" unicode="&#x259;" horiz-adv-x="1068" 
d="M527 132q123 0 202.5 82t88.5 219h-566q2 -136 77.5 -218.5t197.5 -82.5zM256 769h-171q38 132 154 210.5t283 78.5q219 0 346.5 -145t127.5 -392q0 -246 -128 -392.5t-343 -146.5q-211 0 -332 140t-121 382l3 65h743v8q0 151 -82 241t-214 90q-195 0 -266 -139z" />
    <glyph glyph-name="uni04D9" unicode="&#x1dd;" horiz-adv-x="1068" 
d="M527 132q123 0 202.5 82t88.5 219h-566q2 -136 77.5 -218.5t197.5 -82.5zM256 769h-171q38 132 154 210.5t283 78.5q219 0 346.5 -145t127.5 -392q0 -246 -128 -392.5t-343 -146.5q-211 0 -332 140t-121 382l3 65h743v8q0 151 -82 241t-214 90q-195 0 -266 -139z" />
    <glyph glyph-name="Adieresismacron" unicode="&#x1de;" horiz-adv-x="1292" 
d="M1078 0l-145 413h-574l-145 -413h-189l532 1443h178l532 -1443h-189zM643 1224l-231 -658h468l-231 658h-6zM469 1766q43 0 73.5 -31t30.5 -75t-30.5 -75t-73.5 -31q-44 0 -74.5 31t-30.5 75t30.5 75t74.5 31zM329 2025h634v-116h-634v116zM823 1766q44 0 74.5 -31
t30.5 -75t-30.5 -75t-74.5 -31q-43 0 -73.5 31t-30.5 75t30.5 75t73.5 31z" />
    <glyph glyph-name="adieresismacron" unicode="&#x1df;" horiz-adv-x="1028" 
d="M456 130q123 0 206.5 76.5t83.5 188.5v85l-278 -17q-105 -7 -162.5 -51t-57.5 -118t57 -119t151 -45zM417 -18q-155 0 -250.5 86t-95.5 226q0 134 98.5 214t278.5 90l298 17v87q0 95 -60 149t-168 54q-99 0 -161 -43.5t-79 -121.5h-168q9 139 120.5 228.5t291.5 89.5
q183 0 290.5 -92t107.5 -247v-719h-165v179h-4q-47 -89 -138 -143t-196 -54zM320 1152q-46 0 -79 33t-33 79t33 79t79 33t79 -33t33 -79t-33 -79t-79 -33zM700 1152q-46 0 -79 33t-33 79t33 79t79 33t79 -33t33 -79t-33 -79t-79 -33zM797 1638v-116h-574v116h574z" />
    <glyph glyph-name="Adotmacron" unicode="&#x1e0;" horiz-adv-x="1292" 
d="M1078 0l-145 413h-574l-145 -413h-189l532 1443h178l532 -1443h-189zM643 1224l-231 -658h468l-231 658h-6zM646 1574q-49 0 -83 34t-34 83q0 47 34 81t83 34t83 -34t34 -81q0 -49 -34 -83t-83 -34zM963 2025v-116h-634v116h634z" />
    <glyph glyph-name="adotmacron" unicode="&#x1e1;" horiz-adv-x="1028" 
d="M456 130q123 0 206.5 76.5t83.5 188.5v85l-278 -17q-105 -7 -162.5 -51t-57.5 -118t57 -119t151 -45zM417 -18q-155 0 -250.5 86t-95.5 226q0 134 98.5 214t278.5 90l298 17v87q0 95 -60 149t-168 54q-99 0 -161 -43.5t-79 -121.5h-168q9 139 120.5 228.5t291.5 89.5
q183 0 290.5 -92t107.5 -247v-719h-165v179h-4q-47 -89 -138 -143t-196 -54zM510 1171q-50 0 -86 35.5t-36 86.5q0 49 36 85.5t86 36.5t86 -36.5t36 -85.5q0 -51 -36 -86.5t-86 -35.5zM797 1638v-116h-574v116h574z" />
    <glyph glyph-name="AEmacron" unicode="&#x1e2;" horiz-adv-x="1973" 
d="M802 1292l-322 -680h482v680h-160zM962 0v459h-555l-217 -459h-185l687 1443h1144v-162h-694v-473h657v-160h-657v-486h694v-162h-874zM1716 1750v-116h-634v116h634z" />
    </font>
</defs>
</svg>
